<?xml version="1.0" standalone="no"?><!DOCTYPE svg PUBLIC "-//W3C//DTD SVG 1.1//EN" "http://www.w3.org/Graphics/SVG/1.1/DTD/svg11.dtd" ><svg xmlns="http://www.w3.org/2000/svg"><metadata></metadata><defs><font id="Mapkey Icons : 4-3-2015" horiz-adv-x="830"><font-face font-family="Mapkey Icons" font-weight="400" font-stretch="normal" units-per-em="1024" panose-1="2 0 5 3 0 0 0 0 0 0" ascent="682" descent="-212" x-height="0" bbox="-35 -161 846 714" underline-thickness="50" underline-position="-125" unicode-range="U+00c4-e0ac" /><missing-glyph horiz-adv-x="0"  /><glyph glyph-name=".null" unicode="" d="" /><glyph glyph-name="nonmarkingreturn" unicode="" d="" /><glyph glyph-name="Adieresis" unicode="ä" d="" /><glyph glyph-name="Aring" unicode="å" d="" /><glyph glyph-name="Ccedilla" unicode="ç" d="" /><glyph glyph-name="Eacute" unicode="é" d="" /><glyph glyph-name="Ntilde" unicode="ñ" d="" /><glyph glyph-name="Odieresis" unicode="ö" d="" /><glyph glyph-name="Udieresis" unicode="ü" d="" /><glyph glyph-name="agrave" unicode="à" d="" /><glyph glyph-name="aacute" unicode="á" d="" /><glyph glyph-name="acircumflex" unicode="â" d="" /><glyph glyph-name="atilde" unicode="ã" d="" /><glyph glyph-name="adieresis" unicode="ä" d="" /><glyph glyph-name="aring" unicode="å" d="" /><glyph glyph-name="ccedilla" unicode="ç" d="" /><glyph glyph-name="egrave" unicode="è" d="" /><glyph glyph-name="eacute" unicode="é" d="" /><glyph glyph-name="ecircumflex" unicode="ê" d="" /><glyph glyph-name="edieresis" unicode="ë" d="" /><glyph glyph-name="igrave" unicode="ì" d="" /><glyph glyph-name="iacute" unicode="í" d="" /><glyph glyph-name="icircumflex" unicode="î" d="" /><glyph glyph-name="idieresis" unicode="ï" d="" /><glyph glyph-name="ntilde" unicode="ñ" d="" /><glyph glyph-name="ograve" unicode="ò" d="" /><glyph glyph-name="oacute" unicode="ó" d="" /><glyph glyph-name="ocircumflex" unicode="ô" d="" /><glyph glyph-name="otilde" unicode="õ" d="" /><glyph glyph-name="odieresis" unicode="ö" d="" /><glyph glyph-name="ugrave" unicode="ù" d="" /><glyph glyph-name="uacute" unicode="ú" d="" /><glyph glyph-name="uni0237" unicode="&#x237;" d="" /><glyph glyph-name="uniDFF6" unicode="&#xdff6;" d="" /><glyph glyph-name="mapshakers" unicode="&#xe000;" d="M500 74 L451 120 Q440 129 425 128.5 Q410 128 401 122 L262 20 Q251 12 245 3 Q239 -6 242 -10 Q247 -19 280 -20 L449 -20 Q462 -20 477 -12 Q492 -4 498 9 L507 23 Q510 33 510 39 L510 49 Q510 65 500 74 ZM575 79 Q588 66 588 51 Q588 36 582 28 L545 -39 Q539 -51 524 -60 Q509 -69 494 -69 L203 -69 Q190 -70 176 -60 Q151 -44 150 -22.5 Q149 -1 163 11 L410 197 Q419 204 426 204 L435 204 Q449 203 458 194 L575 79 ZM174 426 Q169 418 168.5 402.5 Q168 387 181 375 L248 311 Q259 301 273 300.5 Q287 300 298 308 L471 441 Q482 448 486 460 Q495 485 467 499 Q453 505 438 505 L253 505 Q239 505 224.5 496.5 Q210 488 203 476 L174 426 ZM89 359 Q76 372 76.5 387.5 Q77 403 82 412 L152 536 Q158 548 173 557 Q188 566 203 566 L494 566 Q508 566 523 556 Q537 549 545 536 L572 488 Q588 460 563 439 L276 221 Q267 214 260 215 L251 215 Q237 217 226 226 L89 359 ZM181 192 Q190 182 189 169 Q188 156 178 147 L113 98 Q102 90 90 92 Q78 94 70 108 L6 220 Q0 232 0 249 Q-2 266 6 278 L21 304 Q27 316 39.5 317.5 Q52 319 62 309 L181 192 ZM690 220 L644 136 Q637 124 624 122 Q613 118 604 128 L503 228 Q494 237 495 250 Q496 263 507 272 L611 352 Q622 358 635 356 Q648 354 654 342 L690 278 Q696 266 696 249 Q696 232 690 220 Z" /><glyph glyph-name="mapkey" unicode="&#xe001;" d="M162 101 Q232 56 355.5 55.5 Q479 55 545 103 Q542 44 489.5 17.5 Q437 -9 352.5 -9 Q268 -9 217 18 Q166 45 162 101 ZM571 493 Q627 489 667 449 Q707 409 706.5 355.5 Q706 302 675.5 263.5 Q645 225 598 213 Q582 191 558 175 Q562 167 565 159 Q543 128 482 111.5 Q421 95 351 95 Q281 95 222.5 111 Q164 127 141 154 Q145 164 148 175 Q125 193 108 213 Q60 224 30 263 Q0 302 0 355.5 Q0 409 38.5 449.5 Q77 490 133 493 Q209 562 322 572 Q317 576 311 587 L304 606 Q332 592 349 594 Q356 596 371 632 L373 644 Q375 590 385 586 Q391 582 410.5 593.5 Q430 605 443 618 L455 630 Q439 579 425 567 L423 566 Q508 549 571 493 ZM329 266 Q321 272 311 269.5 Q301 267 295 258 L274 219 Q270 213 270 205 Q270 197 283 186 Q288 183 298 184 Q308 185 315 197 L337 236 Q346 254 329 266 ZM427 219 L407 258 Q403 266 393 269 Q383 272 375 266.5 Q367 261 363.5 252 Q360 243 365 236 L387 197 Q394 185 404 185 Q414 185 420.5 189 Q427 193 429 202 Q431 211 427 219 ZM178 218 Q246 290 353 290 Q405 290 451 271 Q497 252 527 219 Q537 236 545 259 Q581 261 605.5 288.5 Q630 316 630 353.5 Q630 391 603 417.5 Q576 444 538 444 Q524 444 513 440 Q480 480 433.5 480 Q387 480 353 437 Q318 480 272.5 480 Q227 480 193 441 Q182 444 169 444 Q132 444 104 417 Q76 390 76 353 Q76 316 100.5 289 Q125 262 159 259 Q166 237 178 218 ZM537 311 Q496 346 443 346 Q416 346 385 336 L373 331 Q373 341 382 357.5 Q391 374 400 383 Q419 404 451.5 404 Q484 404 502 392 Q538 368 537 320 L537 311 ZM178.5 341 Q182 354 186.5 366 Q191 378 211 391.5 Q231 405 252 405 Q295 405 313 384 Q331 363 339 335 Q290 352 254 344 Q216 340 184 319 L178 312 Q179 314 177 321 Q175 328 178.5 341 ZM178 312 L178 312 Z" /><glyph glyph-name="bar" unicode="&#xe003;" d="M246 438 Q231 452 208.5 452 Q186 452 169 438 Q152 424 152 404 Q152 384 169 370.5 Q186 357 208.5 357 Q231 357 246 370.5 Q261 384 261 404 Q261 424 246 438 ZM0 518 Q0 544 37 544 L425 544 Q463 544 464 518 Q464 504 450 487 L304 309 Q284 286 270.5 245.5 Q257 205 257 175 L257 129 Q257 97 276.5 65 Q296 33 325 22 Q354 11 354 2 Q354 -7 324 -7 L140 -7 Q109 -7 108.5 2.5 Q108 12 142 23 Q169 36 188.5 67.5 Q208 99 206 129 L206 175 Q206 207 193 246 Q180 285 160 309 L14 487 Q-1 504 0 518 ZM369 608 Q404 648 451 648 Q452 648 452 649 Q498 650 532 615.5 Q566 581 568 530 L568 524 Q568 477 536.5 437.5 Q505 398 455 398 Q440 398 433.5 405.5 Q427 413 428 422.5 Q429 432 434.5 438.5 Q440 445 446 444.5 Q452 444 455 444 Q487 444 508 468 Q529 492 528 523 L528 527 Q526 561 504 582.5 Q482 604 456 604 Q453 603 450 603 Q420 601 399 577 Q387 564 371 576 Q364 582 364 591.5 Q364 601 369 608 Z" /><glyph glyph-name="traffic_signal" unicode="&#xe004;" d="M292 201 Q258 201 236 178 Q214 156 214 122 Q214 88 236 64 Q258 40 292 40 L293 40 Q325 40 348 62 Q371 84 371.5 119 Q372 154 348.5 177.5 Q325 201 292 201 ZM457 208 L573 208 Q584 208 585 201 Q586 194 580 186 L457 50 L457 208 ZM13 208 L128 208 L128 50 L6 186 Q-1 194 0.5 201 Q2 208 13 208 ZM348.5 373.5 Q325 397 292 397 Q259 397 236 372.5 Q213 348 214 316 Q215 284 236 261 Q258 239 292 238 Q293 238 293 237 Q325 236 348 260 Q371 284 371.5 317 Q372 350 348.5 373.5 ZM457 399 L573 399 Q584 399 585 392 Q587 387 580 378 L457 241 L457 399 ZM13 399 L128 399 L128 241 L6 378 Q-2 387 0 393 Q2 399 13 399 ZM457 592 L573 592 Q584 592 585 584.5 Q586 577 580 570 L457 433 L457 592 ZM13 592 L128 592 L128 433 L6 570 Q-2 578 0 585 Q2 592 13 592 ZM348.5 569.5 Q325 593 292 593 Q259 593 236 569.5 Q213 546 214 512 Q215 478 237 456.5 Q259 435 292 434 Q325 433 348.5 456 Q372 479 372 512.5 Q372 546 348.5 569.5 ZM211 643 L375 643 Q398 643 414.5 626.5 Q431 610 430 584 L430 60 Q430 37 413.5 19.5 Q397 2 375 1 L211 1 Q187 1 170 18.5 Q153 36 153 60 L153 584 Q153 608 170 625.5 Q187 643 211 643 Z" /><glyph glyph-name="playground_alt" unicode="&#xe005;" d="M398 469 Q502 455 592 401 Q560 496 474 547 Q432 526 388 482 Q394 476 398 469 ZM342 62 Q377 62 425.5 70.5 Q474 79 492 101 L336 356 Q334 356 322 355 L310 353 Q296 353 282 356 Q244 314 212 252 Q180 190 166 131 Q240 62 342 62 ZM220 553 Q168 525 132 477 Q156 482 179 482 Q202 482 226 478 Q236 490 248 500 L220 553 ZM358 471.5 Q338 486 311 486 Q284 486 266 471.5 Q248 457 248 437.5 Q248 418 266 404 Q284 390 311 390 Q338 390 358 404 Q378 418 378 437.5 Q378 457 358 471.5 ZM171 616.5 Q250 662 343 662 Q436 662 515 616.5 Q594 571 640 493 Q686 415 686 322.5 Q686 230 640 152.5 Q594 75 515 29 Q436 -17 343 -17 Q250 -17 171 29 Q92 75 46 152.5 Q0 230 0 322.5 Q0 415 46 493 Q92 571 171 616.5 Z" /><glyph glyph-name="dentist" unicode="&#xe006;" d="M346 441 L409 475 L346 510 L312 573 L278 510 L215 475 L278 441 L312 378 L346 441 ZM436 326 L445 229 Q445 134 380 22 Q367 2 348.5 -18 Q330 -38 325 -43.5 Q320 -49 305 -52 Q290 -55 284 -51.5 Q278 -48 283 -28.5 Q288 -9 299 66.5 Q310 142 313.5 164.5 Q317 187 317 219.5 Q317 252 308 292 Q304 309 279 319 Q254 329 227 322 Q178 309 180 236 Q180 219 183 203.5 Q186 188 209.5 112 Q233 36 234.5 21 Q236 6 232.5 -13.5 Q229 -33 218 -38 Q216 -40 206 -40 Q189 -40 123 50 Q101 94 91 117 Q67 173 69 228 L72 292 Q72 370 38 416 Q18 443 9 463 Q0 483 0 508.5 Q0 534 13 562 Q38 621 99 622 Q115 622 147.5 609.5 Q180 597 191 593.5 Q202 590 214.5 590 Q227 590 245 595 Q263 600 299 617 Q335 634 347.5 635 Q360 636 379 636 Q398 636 430.5 624 Q463 612 477.5 584 Q492 556 492 521 Q492 486 464 436 Q436 386 436 333 L436 326 Z" /><glyph glyph-name="fishing" unicode="&#xe007;" d="M545 485 Q481 429 392 428 Q380 428 373 429 L358 432 Q361 431 369 425 Q406 402 444 401 Q488 402 518 436 Q545 467 545 485 ZM463 485 Q493 485 501 518 Q501 540 487 548 Q473 556 465 556 Q429 549 429 522 Q429 500 449 490 Q457 486 463 485 ZM303 386 Q307 425 326 445 Q326 494 337 542.5 Q348 591 365 621 Q379 598 411 582 Q428 618 427 644 Q460 629 502 598 Q544 567 575 528 Q695 497 700 279 L700 251 Q700 252 695 258 Q678 284 649 284 Q642 284 636 282 Q629 207 601 162 Q635 158 661 136.5 Q687 115 697 81 Q702 65 701 54 L701 42 Q664 72 623 71 Q564 71 524 32 Q500 9 491 -22 Q469 10 468.5 53.5 Q468 97 501 129 Q453 150 407.5 215.5 Q362 281 338 359 Q328 353 324 316 Q303 359 303 386 ZM303 256 L362 162 L336 148 Q330 84 282 40 Q234 -4 166 -4 Q98 -4 49 45 Q0 94 0 166 Q0 238 48 280 Q68 297 101 316.5 Q134 336 134 342 L134 461 Q111 470 95.5 491 Q80 512 80 543.5 Q80 575 105 600.5 Q130 626 166 626 Q202 626 227.5 600.5 Q253 575 253 544 Q253 484 203 462 L203 342 Q202 307 179 287 Q156 267 128 251.5 Q100 236 85 218 Q70 200 70 161 Q70 122 98.5 94 Q127 66 166 66 Q205 66 233 90 Q261 114 267 149 L243 164 L303 256 Z" /><glyph glyph-name="wind_generator" unicode="&#xe008;" d="M248 298 Q253 300 261 302 L284 -34 L188 -34 L204 246 Q228 269 240 285 L248 298 ZM298 354 Q315 353 368.5 337.5 Q422 322 491 294 Q560 266 560 254 Q560 241 482 254 Q404 267 348 283 Q292 299 278 309 Q298 325 298 348 L298 354 ZM4 127 Q0 126 0 130 Q0 143 46 197.5 Q92 252 135 290 Q178 328 192 336 Q198 310 224 300 Q183 246 76 169 Q18 127 4 127 ZM250 400 L240 400 Q216 399 202 382 Q193 395 177.5 449 Q162 503 152 560.5 Q142 618 142 635 Q142 652 145 653 Q148 654 148 655 Q159 655 187.5 587.5 Q216 520 232 468.5 Q248 417 250 400 ZM221 370.5 Q230 380 244 380 Q258 380 267 370.5 Q276 361 277 348 Q278 335 268 325.5 Q258 316 244 316 Q230 316 221 325.5 Q212 335 212 348 Q212 361 221 370.5 Z" /><glyph glyph-name="crucifix" unicode="&#xe009;" d="M438.5 466.5 Q452 452 452 431.5 Q452 411 438 397 Q424 383 404 383 L274 383 L274 7 Q274 -14 260 -27.5 Q246 -41 226 -41 Q206 -41 192 -27 Q178 -13 178 7 L178 383 L48 383 Q27 383 13.5 397 Q0 411 0 431.5 Q0 452 14 466.5 Q28 481 48 481 L178 481 L178 616 Q178 637 192 650.5 Q206 664 226 664 Q246 664 260 649.5 Q274 635 274 616 L274 481 L404 481 Q425 481 438.5 466.5 Z" /><glyph glyph-name="cave_entrance" unicode="&#xe00a;" d="M56 0 Q4 0 0 50 L0 60 Q0 146 54 268 Q86 343 140 377 Q177 400 217 400 Q235 400 256 395 Q276 460 329 496 Q369 524 410.5 524 Q452 524 492 488 Q546 441 571 308 Q596 316 621.5 316 Q647 316 670 297 Q711 262 733.5 204.5 Q756 147 763 105 L771 21 Q772 12 754.5 6 Q737 0 713 0 L544 0 Q521 0 505.5 8 Q490 16 490 29 Q506 62 506.5 114.5 Q507 167 466.5 210 Q426 253 368.5 253 Q311 253 271 209.5 Q231 166 231 107 Q231 68 249 32 Q250 18 235 9 Q220 0 195 0 L56 0 Z" /><glyph glyph-name="castle_defensive" unicode="&#xe00b;" d="M250 340 L250 401 Q250 444 226 460 Q218 465 209 465 Q186 466 178 446 Q167 425 165 401 L165 340 Q165 331 173.5 324.5 Q182 318 191 318 L225 318 Q235 318 242.5 324.5 Q250 331 250 340 ZM250 124 L250 186 Q250 227 226 243 Q218 248 209 248 Q186 248 178 229 Q167 208 165 186 L165 124 Q165 114 173.5 108 Q182 102 191 102 L225 102 Q235 102 242.5 108.5 Q250 115 250 124 ZM371 372 L387 372 Q397 373 404.5 365.5 Q412 358 412 349 L412 323 Q412 315 422 307 Q432 299 441 299 Q450 299 459 307 Q468 315 468 323 L468 349 Q468 359 476 365.5 Q484 372 493 372 L504 372 Q514 372 521.5 365 Q529 358 529 349 L529 322 Q529 313 539 305.5 Q549 298 558 298 Q567 298 577 305.5 Q587 313 587 322 L587 349 Q587 359 594 365.5 Q601 372 610 372 L623 372 Q634 372 640 365 Q646 358 646 349 L646 323 Q646 315 657.5 307 Q669 299 677.5 299 Q686 299 695 307 Q704 315 704 323 L704 349 Q704 359 711 365.5 Q718 372 727 372 L736 372 Q747 372 753 365 Q759 358 759 349 L759 25 Q759 15 752 8.5 Q745 2 736 2 L673 2 Q663 2 656.5 8.5 Q650 15 650 25 L650 104 Q648 141 615 188 Q584 235 538 235 Q490 234 452 178 Q439 159 432 143.5 Q425 128 425 104 L425 25 Q425 15 417.5 8.5 Q410 2 399 2 L74 2 Q49 2 47 7 L47 405 Q47 429 34 446 L14 471 Q0 489 0 512 L0 609 Q0 619 7 626 Q14 633 23 633 L32 633 Q43 633 49.5 625 Q56 617 56 609 L56 584 Q56 574 66.5 567.5 Q77 561 85 561 Q93 561 103 568 Q113 575 113 584 L113 609 Q113 619 120.5 626 Q128 633 138 633 L151 633 Q162 633 168 625 Q174 617 174 609 L174 583 Q174 573 184 566.5 Q194 560 204 560 Q214 560 223 567 Q232 574 232 583 L232 609 Q232 619 239 626 Q246 633 255 633 L268 633 Q278 633 285.5 625 Q293 617 293 609 L293 584 Q293 574 303 567.5 Q313 561 322.5 561 Q332 561 340.5 568 Q349 575 349 584 L349 609 Q349 619 357 626 Q365 633 374 633 L383 633 Q393 633 399 625 Q405 617 405 609 L405 512 Q405 490 392 471 L372 446 Q358 428 358 380 Q358 374 361.5 373 Q365 372 371 372 Z" /><glyph glyph-name="cinema" unicode="&#xe00c;" d="M83 367 Q61 374 46 384 Q31 394 31 384 L31 363 Q31 352 42 345 Q75 325 84.5 325.5 Q94 326 94 331 L94 352 Q94 363 83 367 ZM146 352 Q137 352 137 343 L137 322 Q137 310 146 310 L162 310 Q191 310 194.5 314.5 Q198 319 198 324 L198 345 Q198 354 184.5 353 Q171 352 162 352 L146 352 ZM303 378 Q303 382 301 383.5 Q299 385 285.5 380 Q272 375 257.5 370.5 Q243 366 243 356 L243 334 Q245 330 245 328 Q252 324 294 342 Q305 346 303 356 L303 378 ZM409 426 Q409 436 401 432 Q393 428 377.5 420.5 Q362 413 355.5 410 Q349 407 349 397 L349 375 Q349 365 358 369 Q389 383 399 388 Q409 393 409 404 L409 426 ZM517 465 Q517 472 509 472 Q501 472 465 460 Q454 457 454 446 L454 423 Q454 412 470 418.5 Q486 425 501 429 Q515 434 517 446 L517 465 ZM589 486 Q558 486 560 473 L560 452 Q560 443 571 444 Q593 446 610 446 Q619 444 621 452 L621 473 Q621 482 610 485 Q598 485 589 486 ZM727 428 Q725 443 675 468 Q666 472 666 464 L666 441 Q666 432 675 428 Q696 419 711.5 408 Q727 397 727 407 L727 428 ZM238 272 Q238 276 235 278.5 Q232 281 212.5 275.5 Q193 270 151.5 270 Q110 270 69 292 Q58 298 58 286 L58 88 Q58 77 69 73 Q111 53 152 53 Q193 53 227 63 Q236 66 238 76 L238 272 ZM457 364 Q457 369 454.5 370.5 Q452 372 438.5 366.5 Q425 361 371 335.5 Q317 310 288 300 Q277 296 277 285 L277 87 Q277 77 288 82 Q330 99 447 153 Q458 156 457 166 L457 364 ZM666 392 Q597 419 508 392 Q498 388 496 378 L496 181 Q497 172 508 174 Q596 199 666 174 Q670 172 673.5 174 Q677 176 677 179 L677 376 Q677 388 666 392 ZM87 29 Q65 36 49.5 45 Q34 54 34 45 L34 23 Q34 12 45 5 Q96 -27 96 -7 L96 14 Q96 25 87 29 ZM141 -15 Q142 -27 152 -27 L162 -27 Q203 -28 202 -13 L202 8 Q202 20 188.5 18 Q175 16 166 16 L151 16 Q140 16 141 5 L141 -15 ZM308 41 Q308 53 292 46.5 Q276 40 261.5 35 Q247 30 247 20 L247 -3 Q247 -9 254 -9 Q261 -9 297 5 Q306 9 308 21 L308 41 ZM414 89 Q414 94 410.5 95.5 Q407 97 388 88 Q369 79 360 75 Q351 71 351 62 L351 40 Q351 31 362 34 L378 42 Q394 50 403 54 Q412 58 414 68 L414 89 ZM519 129 Q518 137 508 137 Q504 137 468 122 Q458 118 457 108 L457 86 Q457 75 473.5 81.5 Q490 88 510 94 Q519 97 519 108 L519 129 ZM625 137 Q625 151 598 150.5 Q571 150 567 145.5 Q563 141 563 137 L563 117 Q563 107 574 107 L607 107 Q627 105 625 115 L625 137 ZM720 106 Q682 130 673 130 Q669 127 669 124 L669 104 Q668 94 679 87 Q699 78 720 64 Q729 59 731 67 L731 87 Q729 99 720 106 ZM0 13 L0 436 Q0 440 3.5 440 Q7 440 11 436 Q78 379 164 380 Q229 382 322 424 Q376 447 429 470 Q528 514 587 514 Q673 510 740 456 Q751 447 749 436 L749 13 Q749 9 746.5 7.5 Q744 6 740 12 Q675 65 587 69 Q526 68 429 24 Q377 0 322 -22 Q223 -66 164 -66 Q78 -66 11 -8 Q0 2 0 13 Z" /><glyph glyph-name="water_tower" unicode="&#xe00d;" d="M241 62 L241 32 Q240 25 232 16 Q218 3 155 4 L99 7 Q71 12 71 32 L71 62 Q70 79 106 75 Q126 73 154 73 Q184 74 204 76 Q242 80 241 62 ZM241 157 L241 126 Q238 98 155 101 L99 104 Q87 106 79 113 Q71 120 71 126 L71 157 Q71 164 79 169 Q87 174 106.5 171 Q126 168 154.5 168 Q183 168 203.5 171 Q224 174 232.5 169 Q241 164 241 157 ZM241 253 L241 223 Q240 216 232 207 Q219 195 155 195 L99 199 Q87 201 79 208.5 Q71 216 71 223 L71 253 Q71 260 79 265 Q87 270 106.5 267.5 Q126 265 154 265 Q184 265 204 267 Q242 271 241 253 ZM273 434 Q280 437 284 432 Q288 427 285.5 417 Q283 407 278.5 400.5 Q274 394 270 395 Q269 396 262 406.5 Q255 417 246 414.5 Q237 412 227 403.5 Q217 395 208 386.5 Q199 378 190 378 Q181 378 171.5 392 Q162 406 152.5 406.5 Q143 407 133.5 400 Q124 393 115.5 386 Q107 379 96.5 379 Q86 379 76 398.5 Q66 418 52 418 Q48 418 43.5 414.5 Q39 411 33 414 Q19 419 26 443 Q34 459 37 460 Q40 461 42 462 Q44 463 46.5 463.5 Q49 464 51.5 464 Q54 464 57.5 462.5 Q61 461 64 459 Q70 455 78 445 Q92 418 116 432 Q124 438 133.5 446 Q143 454 152.5 454 Q162 454 171.5 439.5 Q181 425 190 425 Q199 425 208 434 Q217 443 226.5 450.5 Q236 458 245 460 Q254 462 265 448 Q270 437 273 434 ZM131.5 471 Q109 452 97 452 Q85 452 75 470.5 Q65 489 51 489.5 Q37 490 30.5 483.5 Q24 477 16.5 479 Q9 481 7 491 Q4 501 2 512 Q-3 535 21 535 Q88 526 154 526 L289 535 Q299 536 303.5 530 Q308 524 306 514 Q306 504 302 494 Q292 467 274 457 Q273 457 263.5 472 Q254 487 244.5 485.5 Q235 484 225.5 476 Q216 468 207.5 459.5 Q199 451 189 451.5 Q179 452 170 466 Q154 490 131.5 471 ZM300 570 Q311 566 309 562 Q303 550 154 550 L12 556 Q0 557 0 561.5 Q0 566 9 570 Q55 590 129 628 Q140 633 155.5 633.5 Q171 634 182 628 Q254 590 300 570 ZM230 308 Q201 300 162 300 Q123 300 102.5 303.5 Q82 307 72 309 Q62 311 49.5 324.5 Q37 338 37 361.5 Q37 385 52 393 Q54 394 56 394 Q66 394 75.5 374.5 Q85 355 95 353.5 Q105 352 114.5 359 Q124 366 133.5 373 Q143 380 152.5 379.5 Q162 379 171.5 365 Q181 351 190 351 Q199 351 208 360 Q232 384 243.5 388.5 Q255 393 265 378 Q268 374 268 373 Q275 369 271 349 Q265 315 241 310 Q237 308 230 308 Z" /><glyph glyph-name="boundary_stone" unicode="&#xe00e;" d="M206 179 L414 24 L414 20 Q414 13 407 7.5 Q400 2 394 2 L18 2 Q10 2 5 7.5 Q0 13 0 20 L0 24 L206 179 ZM206 384 L340 284 L340 158 L206 259 L72 158 L72 284 L206 384 ZM196 651 Q198 658 206 658 Q214 658 218 651 L328 486 Q340 470 340 452 L340 363 L206 463 L72 363 L72 452 Q72 472 84 486 L196 651 Z" /><glyph glyph-name="zoo" unicode="&#xe00f;" d="M178.5 345 Q182 358 186.5 370 Q191 382 211 395.5 Q231 409 252 409 Q295 409 313 388 Q331 367 339 339 Q290 356 254 348 Q216 344 184 323 L178 316 Q179 318 177 325 Q175 332 178.5 345 ZM537 315 Q496 350 443 350 Q416 350 385 340 L373 335 Q373 345 382 361.5 Q391 378 400 387 Q419 408 451.5 408 Q484 408 502 396 Q538 372 537 324 L537 315 ZM178 222 Q246 294 353 294 Q405 294 451 275 Q497 256 527 223 Q537 240 545 263 Q581 265 605.5 292.5 Q630 320 630 357.5 Q630 395 603 421.5 Q576 448 538 448 Q524 448 513 444 Q480 484 433.5 484 Q387 484 353 441 Q318 484 272.5 484 Q227 484 193 445 Q182 448 169 448 Q132 448 104 421 Q76 394 76 357 Q76 320 100.5 293 Q125 266 159 263 Q166 241 178 222 ZM427 223 L407 262 Q403 270 393 273 Q383 276 375 270.5 Q367 265 363.5 256 Q360 247 365 240 L387 201 Q394 189 404 189 Q414 189 420.5 193 Q427 197 429 206 Q431 215 427 223 ZM329 270 Q321 276 311 273.5 Q301 271 295 262 L274 223 Q270 217 270 209 Q270 201 283 190 Q288 187 298 188 Q308 189 315 201 L337 240 Q346 258 329 270 ZM571 497 Q627 493 667 453 Q707 413 706.5 359.5 Q706 306 675.5 267.5 Q645 229 598 217 Q582 195 558 179 Q562 171 565 163 Q543 132 482 115.5 Q421 99 351 99 Q281 99 222.5 115 Q164 131 141 158 Q145 168 148 179 Q125 197 108 217 Q60 228 30 267 Q0 306 0 359.5 Q0 413 38.5 453.5 Q77 494 133 497 Q209 566 322 576 Q317 580 311 591 L304 610 Q332 596 349 598 Q356 600 371 636 L373 648 Q375 594 385 590 Q391 586 410.5 597.5 Q430 609 443 622 L455 634 Q439 583 425 571 L423 570 Q508 553 571 497 ZM162 105 Q232 60 355.5 59.5 Q479 59 545 107 Q542 48 489.5 21.5 Q437 -5 352.5 -5 Q268 -5 217 22 Q166 49 162 105 ZM178 316 L178 316 Z" /><glyph glyph-name="cinema_alt" unicode="&#xe010;" d="M430 238 Q477 238 522 257 L522 40 Q522 25 510.5 13.5 Q499 2 483 1 L85 1 Q69 1 57 12.5 Q45 24 45 40 L45 253 Q78 239 117.5 238 Q157 237 192.5 255.5 Q228 274 252 307 L266 307 Q335 238 430 238 ZM100 389.5 Q107 382 117 382 Q127 382 134.5 389.5 Q142 397 142 407.5 Q142 418 134.5 425 Q127 432 117 432 Q107 432 100 425 Q93 418 93 407.5 Q93 397 100 389.5 ZM82 394 Q35 370 35 354 Q35 348 45 338 Q55 328 61 328 Q78 328 102 375 Q88 381 82 394 ZM34 490 Q68 525 117 525 Q166 525 200 490 Q234 455 234 406.5 Q234 358 200 324 Q166 290 117 290 Q68 290 34 324 Q0 358 0 406.5 Q0 455 34 490 ZM405.5 441.5 Q417 430 432.5 430 Q448 430 459 441.5 Q470 453 470 469 Q470 485 459 496 Q448 507 432.5 507 Q417 507 405.5 496 Q394 485 394 469 Q394 453 405.5 441.5 ZM378 495 Q385 516 406 523 Q398 540 384.5 558.5 Q371 577 364 583.5 Q357 590 349 590 Q341 590 325.5 575.5 Q310 561 310 552 Q310 543 316 537 Q340 515 378 495 ZM305.5 595 Q357 647 431.5 647 Q506 647 558 595 Q610 543 610 468.5 Q610 394 558 342.5 Q506 291 431.5 291 Q357 291 305.5 342.5 Q254 394 254 468.5 Q254 543 305.5 595 ZM724 337 Q745 338 745 320 L745 104 Q746 91 734 87.5 Q722 84 706 91 L590 137 Q575 143 564 155.5 Q553 168 553 180 L553 245 Q553 256 563 269 Q573 282 590 286 L706 334 Q716 337 724 337 Z" /><glyph glyph-name="court_house" unicode="&#xe011;" d="M330 543.5 Q338 536 349 536 Q360 536 368 543.5 Q376 551 376 562 Q376 573 368 580.5 Q360 588 349 588 Q338 588 330 580.5 Q322 573 322 562 Q322 551 330 543.5 ZM674 580 Q678 573 676 565 L676 551 Q674 530 666 526 Q630 504 601 503.5 Q572 503 540 516.5 Q508 530 492 536 Q451 551 376 524 Q394 452 403 364.5 Q412 277 412 252 Q410 182 404 143 Q424 126 428 100 L480 100 Q490 100 497 93 Q504 86 504 78 L504 69 L560 69 Q575 69 586.5 59 Q598 49 598 36 L598 3 L106 3 L106 36 Q106 48 116 58 Q128 68 144 69 L186 69 L186 78 Q186 87 192 93.5 Q198 100 208 100 L264 100 Q268 128 292 145 Q284 185 285 226.5 Q286 268 292 337 Q301 439 320 522 Q246 548 202 532 Q186 526 154 512 Q122 498 107 499 Q92 500 90 500 Q60 500 28 519 Q20 522 16 536 Q13 546 18 572 Q31 585 62 585 Q70 586 78 580 Q92 570 128 586 Q196 616 236 615 Q276 614 318 603 Q320 616 328 628 Q335 640 350 650 Q376 632 380 606 Q418 616 455 616 Q492 616 516 608.5 Q540 601 562 591 Q584 581 593 580.5 Q602 580 613 586 Q634 597 664 584 L674 580 ZM558 221 L594 222 L620 222 Q658 221 658 236 Q658 243 643 285.5 Q628 328 610 364 L594 401 Q528 251 529 235 Q527 221 558 221 ZM594 477 Q598 467 607 452.5 Q616 438 634 395 L666 319 Q703 229 702.5 203 Q702 177 671 157 Q640 137 594 137 Q548 137 517 157 Q486 177 486 206 Q486 222 512 291 Q538 360 566 418 L594 477 ZM60 220 Q104 220 148 220 Q176 222 176 235 Q176 248 126 362 L108 399 Q42 249 44 232 Q44 222 60 220 ZM108 475 Q129 436 174.5 330.5 Q220 225 220 200.5 Q220 176 187 154.5 Q154 133 109 133 Q64 133 32 154.5 Q0 176 0 206.5 Q0 237 82 418 L108 475 Z" /><glyph glyph-name="fort" unicode="&#xe012;" d="M543 406 Q546 394 556 394 L580 394 Q584 394 589 398 Q594 402 594 406 L594 454 Q594 469 584 483 Q580 486 577 489.5 Q574 493 565 493 Q556 493 548 479 Q543 466 543 454 L543 406 ZM594 237 L594 286 Q594 299 584 315 Q573 326 564.5 326 Q556 326 548 311 Q543 298 543 286 L543 237 Q543 233 546.5 229 Q550 225 556 225 L580 225 Q584 225 589 229 Q594 233 594 237 ZM112 493 Q92 492 88 454 L88 406 Q88 402 92 398 Q96 394 100 394 L124 394 Q128 394 133 397 Q138 400 138 406 L138 454 Q138 467 134 479 Q124 493 112 493 ZM112 326 Q92 324 88 286 L88 237 Q88 233 92 229 Q96 225 100 225 L124 225 Q128 225 133 228.5 Q138 232 138 237 L138 286 Q138 302 130 315 Q120 326 112 326 ZM486 623 Q494 623 494 609 L494 581 Q494 575 499 571.5 Q504 568 510 568 L528 568 Q532 568 535 572 Q538 576 538 581 L538 609 Q538 623 550 623 L572 623 Q576 623 580 619 Q584 615 584 609 L584 581 Q584 567 598 568 L618 568 Q622 568 626 572 Q630 576 630 581 L630 609 Q630 615 634 619 Q638 623 642 623 L662 623 Q666 623 671 619 Q676 615 678 609 L678 568 Q674 564 674 562 Q674 560 672 556 L656 519 L650 507 L650 14 Q650 10 646 6 Q642 2 638 2 L418 2 Q406 2 406 14 L406 114 Q406 131 401 138.5 Q396 146 393 151.5 Q390 157 386 162 Q364 194 340 195 Q308 195 284 158 Q275 143 272 140 Q268 127 268 114 L268 14 Q268 10 264 6 Q260 2 256 2 L38 2 Q34 2 30 5 Q26 8 26 14 L26 494 Q26 508 20 519 L0 569 L0 609 Q0 615 4 619 Q8 623 10 623 L34 623 Q41 623 46 609 L46 581 Q48 567 58 568 L76 568 Q81 568 84.5 572 Q88 576 88 581 L88 609 Q88 623 98 623 L120 623 Q131 623 134 609 L134 581 Q134 575 138 571.5 Q142 568 146 568 L166 568 Q170 568 174 572 Q178 576 178 581 L178 609 Q178 623 190 623 L212 623 Q226 623 224 609 L224 566 Q224 565 222 562.5 Q220 560 218 556 L204 519 Q198 506 198 494 L198 326 Q198 319 210 319 L252 319 Q262 319 262 304 L262 285 Q262 281 266 276.5 Q270 272 274 272 L300 272 Q304 272 308 276 Q312 280 312 285 L312 304 Q312 308 315 313.5 Q318 319 322 319 L366 319 Q370 319 374 314.5 Q378 310 378 304 L378 285 Q378 281 381 277 Q384 273 388 273 L414 273 Q424 273 424 285 L424 304 Q424 308 428 313.5 Q432 319 438 319 L464 319 Q469 319 472.5 323.5 Q476 328 476 331 L476 508 L456 556 L452 569 L452 609 Q452 623 462 623 L486 623 Z" /><glyph glyph-name="fountain" unicode="&#xe013;" d="M40 248 L11 248 Q0 251 0 259 Q0 263 4 270 Q11 290 33 290 L279 291 L279 378 Q278 398 266 412.5 Q254 427 233.5 427 Q213 427 199.5 412 Q186 397 185 380.5 Q184 364 177 356.5 Q170 349 159 349 Q148 349 141 357 Q134 365 134 377 Q134 421 162.5 451.5 Q191 482 224.5 481.5 Q258 481 279 469 Q276 509 248 538.5 Q220 568 180.5 568 Q141 568 111 536 Q81 504 81 462 Q81 450 74 442 Q67 434 56 434 Q45 434 38 442.5 Q31 451 31 462 Q31 529 74 575 Q117 621 182 621 Q220 621 252.5 602.5 Q285 584 306 552 Q327 584 360 602.5 Q393 621 431 621 Q494 621 539 574.5 Q584 528 584 462 Q584 450 575.5 442 Q567 434 556.5 434 Q546 434 538.5 442.5 Q531 451 531 462 Q531 505 501.5 536.5 Q472 568 432.5 568 Q393 568 365 539 Q337 510 333 469 Q353 482 377 482 L380 482 Q421 482 450 451 Q479 420 479 377 Q479 364 471 356.5 Q463 349 453 349 Q443 349 435 357 Q427 365 427 381 Q427 397 413.5 412 Q400 427 379.5 427 Q359 427 346 412 Q333 397 332 377 L332 291 L575 291 Q582 291 589 286 Q605 278 606 263 Q607 248 591 248 L582 248 Q575 249 569 250 Q562 248 558 248.5 Q554 249 548.5 247 Q543 245 537 243 Q511 233 500.5 204.5 Q490 176 472 160.5 Q454 145 433.5 140.5 Q413 136 394 132.5 Q375 129 360.5 125.5 Q346 122 343.5 111 Q341 100 338 83.5 Q335 67 347 53 Q359 39 402 39 Q409 39 418 32.5 Q427 26 427 11 L427 1 L182 1 L184 14 Q186 39 215 39 Q269 41 270 77 Q270 90 265 112 Q262 121 248 125 Q234 129 214.5 132.5 Q195 136 175 140.5 Q155 145 136 160.5 Q117 176 112 193 Q107 210 103 217 Q99 224 94 228 Q90 232 84 236 Q64 250 40 248 Z" /><glyph glyph-name="library" unicode="&#xe014;" d="M574 190 Q580 196 592 186 Q604 176 606 164.5 Q608 153 601 141.5 Q594 130 582 129 L426 107 L422 107 Q396 108 392 134 Q390 146 398 155 Q406 164 416 166 L574 190 ZM69 182.5 Q72 194 81 201.5 Q90 209 96 209 L102 209 L264 186 Q278 184 285 173.5 Q292 163 290 151.5 Q288 140 279 132 Q270 124 264 124 L256 124 L96 149 Q82 151 74 161 Q66 171 69 182.5 ZM576 295 L584 295 Q590 295 598 288.5 Q606 282 608 270 Q610 258 603 248 Q596 238 584 235 L424 212 Q411 206 400.5 216.5 Q390 227 388 237.5 Q386 248 394 259 Q402 270 414 272 L576 295 ZM69 286 Q72 297 81 305 Q90 313 96 313 L102 313 L264 290 Q278 287 285 276.5 Q292 266 290 255 Q288 244 279 236.5 Q270 229 264 229 L256 229 L96 253 Q82 255 74 265 Q66 275 69 286 ZM576 400 L584 400 Q590 400 598 392.5 Q606 385 610 373 Q614 361 606 351.5 Q598 342 584 340 L430 316 L424 316 Q400 316 396 342 Q394 354 401 364 Q408 374 420 376 L576 400 ZM72 385.5 Q74 397 83 404 Q92 411 98 411 L106 411 L260 388 Q274 385 282 375.5 Q290 366 288 354 Q286 342 277 335 Q268 328 260 328 L252 328 L98 352 Q84 354 77 364 Q70 374 72 385.5 ZM74 79 Q242 75 312 49 L312 428 Q262 465 86 465 L60 465 L60 79 L74 79 ZM628 471 Q549 469 476.5 458 Q404 447 374 427 L374 46 Q448 74 628 85 L628 471 ZM344 482 Q438 532 644 532 L656 532 Q668 532 678 523 Q687 513 688 501 L688 56 Q688 44 680 36 Q672 28 663 27 Q654 26 632 24 Q398 10 356 -32 Q350 -34 344 -34 L342 -34 Q328 -34 318 -22 Q278 14 72 17 Q39 17 27.5 19 Q16 21 8 30 Q0 39 0 50 L0 496 Q0 524 38 526 Q58 527 86 527 Q278 528 344 482 Z" /><glyph glyph-name="rocks" unicode="&#xe015;" d="M508 103 Q528 103 536 112.5 Q544 122 544 130 L544 144 L524 229 Q520 251 498 251 Q492 251 482 239 L464 223 Q454 213 447 213.5 Q440 214 436 214 Q422 218 416 232 L394 290 Q388 307 378 306 Q368 305 360 291 L324 204 Q318 189 307 189.5 Q296 190 288 204 L226 337 Q218 354 209 352.5 Q200 351 196 336 L138 144 Q136 139 136 130 Q136 121 145 111 Q154 101 172 103 L508 103 ZM674 45 Q679 25 668.5 14.5 Q658 4 640 4 L36 4 Q18 4 9 14 Q0 24 0 31.5 Q0 39 2 45 L174 625 Q178 642 187 643 Q196 644 204 626 L286 454 Q292 439 303 437.5 Q314 436 320 454 L366 554 Q372 571 382 571 Q392 571 398 554 L456 412 Q464 392 479 392 Q494 392 504 401 L540 436 Q550 446 556 447 L564 447 Q576 443 580 427 L674 45 Z" /><glyph glyph-name="cemetery" unicode="&#xe016;" d="M364 380 Q372 380 379 386 Q386 392 386 401 Q386 410 379 416 Q372 422 364 422 L150 422 Q142 422 136 416 Q130 410 130 401 Q130 392 136 386 Q142 380 150 380 L364 380 ZM360 298 Q360 318 340 318 L174 318 Q165 318 158.5 312 Q152 306 152 297.5 Q152 289 159 283 Q166 277 174 277 L340 277 Q348 277 354 283.5 Q360 290 360 298 ZM318 172 Q327 172 333.5 178.5 Q340 185 340 193.5 Q340 202 333 208.5 Q326 215 318 215 L194 215 Q186 215 180 208.5 Q174 202 174 193.5 Q174 185 181 178.5 Q188 172 194 172 L318 172 ZM280 583 Q268 598 251 598 Q234 598 222 583 Q210 568 210 546 Q210 524 222 508.5 Q234 493 251 493 Q268 493 280 508.5 Q292 524 292 546 Q292 568 280 583 ZM452 106 Q452 80 478 78 L484 78 Q496 78 503 70 Q510 62 510 51 L510 32 Q510 20 502 12 Q494 4 484 4 L26 4 Q14 4 7 13 Q0 22 0 32 L0 51 Q0 63 8 71 Q16 79 26 78 L30 78 Q42 78 51 86 Q60 94 60 106 L60 110 Q60 122 65 129.5 Q70 137 78 137 Q86 137 92 145 Q98 153 98 163 L76 568 Q75 580 82.5 588 Q90 596 102 596 L104 596 Q134 596 150.5 609.5 Q167 623 195.5 633 Q224 643 251 643 Q301 643 338 618 L350 611 Q372 595 400 596 L412 596 Q422 596 430 586.5 Q438 577 438 568 L416 163 Q415 151 419.5 144 Q424 137 432 137 Q440 137 446 128.5 Q452 120 452 110 L452 106 Z" /><glyph glyph-name="pub" unicode="&#xe017;" d="M498 174 L498 336 Q498 342 492 346.5 Q486 351 476 351 L412 351 L412 158 L476 158 Q485 158 491.5 163 Q498 168 498 174 ZM376 482 Q377 488 381.5 494.5 Q386 501 386 514 Q386 527 376 537 Q366 547 356 547 Q346 547 344 545 L318 536 L314 536 Q302 536 300 544 L290 568 Q280 588 258 587 Q246 587 238 578 L220 565 Q216 562 212 562 Q208 562 204 563 L186 572 Q179 576 165.5 575.5 Q152 575 144 560 L132 544 Q127 536 116 536 L98 540 Q94 541 84.5 541 Q75 541 66.5 530.5 Q58 520 58 512 L58 501 Q58 471 36 443 Q34 438 42 424 Q50 410 57 410 Q64 410 66 412 Q68 415 75 428.5 Q82 442 94 452 Q122 472 152 472 Q264 472 376 472 L376 482 ZM364 115 L364 395 Q364 406 355 414.5 Q346 423 336 423 Q326 423 318 414.5 Q310 406 308 395 L308 115 Q308 102 317 94 Q326 86 336 86 Q346 86 355 94.5 Q364 103 364 115 ZM256 115 L256 395 Q256 406 248 414.5 Q240 423 230 423 Q220 423 211 414.5 Q202 406 202 395 L202 115 Q202 102 211 94 Q220 86 230 86 Q240 86 248 94.5 Q256 103 256 115 ZM148 115 L148 395 Q148 406 140 414.5 Q132 423 122 423 Q112 423 103 414.5 Q94 406 94 395 L94 115 Q94 102 103 94 Q112 86 122 86 Q132 86 140 94.5 Q148 103 148 115 ZM16 505 L14 527 Q13 554 36.5 576 Q60 598 92 598 Q102 598 108 596 Q130 633 172 632 Q194 632 208 623 Q230 644 256 644 Q308 644 328 601 Q340 605 354 604 Q386 604 408 581.5 Q430 559 430 529 Q430 499 412 476 L412 424 L476 424 Q514 424 542 398 Q570 372 570 336 L570 174 Q570 137 543 111.5 Q516 86 476 86 L412 86 L412 4 L44 4 L44 367 Q22 372 11 390 Q0 408 0 418.5 Q0 429 2 435 L4 448 Q16 469 16 505 Z" /><glyph glyph-name="buddhism" unicode="&#xe018;" d="M367 107 Q362 129 351 165 Q340 201 331.5 231 Q323 261 314 289 Q280 229 280 190 Q279 179 283 169 Q294 128 367 107 ZM76 109 Q161 128 161 188 Q161 228 126 289 Q115 243 99 190 Q83 137 76 109 ZM190 436 L168 452 Q151 491 151 525 Q151 595 222 647 Q291 594 291 525 Q291 489 273 450 Q270 449 262 446 Q242 439 260 417 Q263 414 277 410 Q324 401 344.5 369.5 Q365 338 370 297 Q375 256 382 223.5 Q389 191 401 149 Q413 107 416 94 Q419 81 421 78 Q457 45 434 15 Q424 5 401 3 Q378 1 373 0 Q368 -1 361 1 Q221 47 78 1 Q68 -2 58 -2 L39 -2 Q14 0 4.5 18.5 Q-5 37 7.5 70.5 Q20 104 69 253 Q73 268 73 291 Q73 390 165 411 Q171 412 179 422.5 Q187 433 190 436 Z" /><glyph glyph-name="triangle" unicode="&#xe019;" d="M134 119 L450 119 L292 425 L134 119 ZM576 92 Q584 76 584 62 Q584 48 578 32 Q566 1 538 2 L46 2 Q18 2 6 32 Q-4 68 8 92 L252 563 Q266 590 292 590 Q318 590 332 563 L576 92 Z" /><glyph glyph-name="police" unicode="&#xe01a;" d="M368 365 Q366 309 294 309 L270 309 L270 421 L306 421 Q339 421 353.5 408 Q368 395 368 365 ZM450 368 Q450 488 308 487 L189 487 L189 108 L270 108 L270 243 L302 243 Q372 243 411 275.5 Q450 308 450 368 ZM72 617 Q123 595 184.5 594.5 Q246 594 300 616 Q394 580 485 604 Q520 614 527 618 Q534 622 540 624 L598 517 Q593 513 579.5 503 Q566 493 560 488 Q536 470 533 451 Q530 432 527 420.5 Q524 409 524 390.5 Q524 372 542 306.5 Q560 241 560 196 L560 191 Q556 107 493 65 Q455 39 375 4 Q311 -24 300 -77 Q295 -49 272.5 -28.5 Q250 -8 222 4 Q194 16 162 31.5 Q130 47 104 65 Q78 83 60 115 Q42 147 40 191 L40 198 Q40 241 54 306 Q72 364 74 400 Q74 450 55.5 469 Q37 488 20.5 499.5 Q4 511 0 517 L58 624 L72 617 Z" /><glyph glyph-name="ice_ring" unicode="&#xe01b;" d="M245 532 Q234 522 234 508.5 Q234 495 245 484 Q256 473 268.5 473 Q281 473 291 484 Q301 495 301 508.5 Q301 522 291 532 Q281 542 268.5 542 Q256 542 245 532 ZM322 418 Q312 428 298.5 428 Q285 428 275 418 Q265 408 265 394.5 Q265 381 275 370.5 Q285 360 298.5 360 Q312 360 322 370.5 Q332 381 332 394.5 Q332 408 322 418 ZM334 320.5 Q324 311 324 297.5 Q324 284 334 274 Q344 264 358.5 264 Q373 264 382 274 Q391 284 391 297.5 Q391 311 382 320.5 Q373 330 358.5 330 Q344 330 334 320.5 ZM60 115 Q52 127 52.5 181.5 Q53 236 56.5 276.5 Q60 317 66 348 Q72 379 75 398.5 Q78 418 76 446 L76 466 Q76 516 166 554 Q243 587 301 587 Q327 586 325 578 Q329 420 416 336 Q472 280 551 258 Q567 254 578 254 Q639 250 661 195 Q675 159 662 134 Q656 124 647 122 Q568 113 510 113 Q407 113 360 140 Q340 153 330 162 Q303 188 247 187 Q239 186 234 169.5 Q229 153 229 144 L229 113 L60 115 ZM578 43 Q675 45 638 112 L668 116 Q684 98 684 79 Q685 25 638 12 Q607 4 540 4 L0 4 Q7 20 21 35.5 Q35 51 49 50 L65 50 Q110 50 115 56 Q120 62 114 73.5 Q108 85 99 91 L89 100 L179 101 Q179 77 218.5 58 Q258 39 346 38 L351 38 L440 50 Q452 54 455 67 Q458 80 454 89 L452 101 L494 101 Q493 88 501 76 Q517 48 538.5 45.5 Q560 43 578 43 Z" /><glyph glyph-name="marina" unicode="&#xe01c;" d="M266 522 Q280 508 299 508 Q318 508 333 522 Q348 536 348 555.5 Q348 575 333 589.5 Q318 604 299 604 Q280 604 266 589.5 Q252 575 252 555.5 Q252 536 266 522 ZM318 352 Q320 226 352 126 Q352 126 366 126 Q447 126 502.5 152.5 Q558 179 562 220 L528 217 L602 278 Q602 228 586 185 Q558 105 506 81 Q484 71 446 55.5 Q408 40 373 18 Q338 -4 300 -57 Q267 -6 227.5 18 Q188 42 151 56.5 Q114 71 92 81.5 Q70 92 51 117 Q32 142 16 186.5 Q0 231 0 278 L70 217 L40 220 Q44 180 97 153 Q150 126 230 126 Q240 126 250 126 Q278 207 276 320 Q276 353 274 385 Q247 397 214.5 397 Q182 397 156 394 Q152 381 147 381.5 Q142 382 138 390 Q134 398 134 410.5 Q134 423 138 431 Q142 439 148 439 Q152 440 156 428 Q182 424 211 424 Q240 424 268 432 Q264 462 252 476 Q231 489 219.5 510.5 Q208 532 208 562.5 Q208 593 234 621 Q260 649 300 649 Q340 649 366 621 Q392 593 392 562 Q392 499 346 473 Q334 461 326 433 Q361 422 436 428 Q440 440 444 439 Q448 439 452 431 Q456 422 456 410 Q456 382 444 382 Q440 383 436 394 Q363 401 318 383 L318 352 Z" /><glyph glyph-name="playground" unicode="&#xe01d;" d="M206 537 Q215 525 211.5 517.5 Q208 510 195 510 L19 510 Q5 510 1 518.5 Q-3 527 6 537 L85 641 Q94 653 106.5 652.5 Q119 652 128 641 L206 537 ZM643 4 Q643 4 634 4 Q518 4 455.5 38.5 Q393 73 357 122 Q341 144 325 165 Q289 208 238 213 L238 322 Q314 320 366 271 Q389 249 427 199 Q465 149 494 122 Q541 76 611 78 L616 78 Q629 78 636 59 Q648 25 643 4 ZM70 340.5 Q85 325 106.5 325 Q128 325 143.5 340.5 Q159 356 159 378 Q159 400 143.5 416 Q128 432 106.5 432 Q85 432 70 416 Q55 400 55 378 Q55 356 70 340.5 ZM182 483 Q195 483 203 473.5 Q211 464 211 452 L211 302 Q211 289 203 279.5 Q195 270 182 270 L29 270 Q16 270 8.5 280 Q1 290 1 302 L1 452 Q1 465 10 474 Q19 483 29 483 L182 483 ZM143 164 Q156 164 164 170 Q172 176 172 183 Q172 190 163.5 196 Q155 202 143 202 L73 202 Q60 202 52 196 Q44 190 44 183 Q44 176 52 170 Q60 164 73 164 L143 164 ZM44 103 Q44 86 73 86 L143 86 Q172 86 172 103 Q172 111 163.5 116 Q155 121 143 121 L73 121 Q60 121 52 116 Q44 111 44 103 ZM182 245 Q213 245 211 238 L211 22 Q211 14 205.5 9 Q200 4 192 4 Q184 4 178 9 Q172 14 172 22 Q172 30 163.5 35.5 Q155 41 143 41 L73 41 Q60 41 52 35.5 Q44 30 44 22 Q44 14 36.5 9 Q29 4 21 4 Q13 4 7 9 Q1 14 1 22 L1 244 Q1 245 29 245 L182 245 Z" /><glyph glyph-name="ruins" unicode="&#xe01e;" d="M546 40 Q549 35 554 35 Q559 35 564.5 49.5 Q570 64 570 78 Q570 92 562 104.5 Q554 117 542 118.5 Q530 120 522 111 L515 105 Q505 97 506 86.5 Q507 76 515 70 Q537 57 546 40 ZM224 332 L224 373 Q223 404 213 432 Q208 441 188.5 440.5 Q169 440 164 432 Q151 402 151 373 L151 332 Q151 319 160 310.5 Q169 302 183 302 L195 302 Q208 302 216 310.5 Q224 319 224 332 ZM224 127 L224 167 Q223 203 212 229 Q206 236 188 236 L187 236 Q170 236 164 226 Q151 198 151 167 L151 127 Q151 113 160 104 Q169 95 183 95 L195 95 Q208 95 216 104.5 Q224 114 224 127 ZM404.5 284 Q413 285 418 301.5 Q423 318 423 335.5 Q423 353 434 354 L452 354 Q461 354 469 336.5 Q477 319 477 308.5 Q477 298 486 290 Q495 282 502 282 Q514 282 512 272 L507 220 Q506 207 515 201 Q524 195 534 200 L577 215 Q590 219 600.5 213 Q611 207 611 194 Q611 181 598 141 Q600 125 609.5 100.5 Q619 76 629 75 Q638 75 648 80 Q677 97 680 84 L680 79 L686 50 L686 26 Q686 15 677 8.5 Q668 2 655 2 L477 2 L477 13 Q477 107 454 131 Q431 155 399.5 162.5 Q368 170 344 154 Q322 131 321 53 Q321 30 323 2 L75 2 Q44 2 45 6 L45 376 Q45 389 39 405 Q35 421 26 431 L19 440 Q1 470 0 497 L0 570 Q0 583 8 592 Q16 601 26 601 Q36 601 44 584.5 Q52 568 52 556.5 Q52 545 65.5 538 Q79 531 85.5 532 Q92 533 98 550.5 Q104 568 104 578 Q104 588 112 594.5 Q120 601 131 601 Q142 601 150 584 Q158 567 158 556 Q158 545 171.5 537.5 Q185 530 191.5 530 Q198 530 204 548.5 Q210 567 210 577.5 Q210 588 218 594.5 Q226 601 236.5 601 Q247 601 256 584.5 Q265 568 265 556.5 Q265 545 268 539.5 Q271 534 272.5 533 Q274 532 274 525 Q274 518 270 505.5 Q266 493 270.5 482 Q275 471 285 467 Q295 463 304.5 454 Q314 445 321.5 429.5 Q329 414 326 410.5 Q323 407 323 380.5 Q323 354 335 354 Q347 354 358 353 Q362 353 366.5 336 Q371 319 371 308.5 Q371 298 383.5 290.5 Q396 283 404.5 284 Z" /><glyph glyph-name="internet" unicode="&#xe01f;" d="M379 326 L382 415 Q366 418 338 418 Q290 418 263 386.5 Q236 355 236 301 Q236 215 302 216 Q337 216 356 242 Q375 268 379 326 ZM87 294 Q87 181 143.5 122 Q200 63 302 63 Q404 63 496 100 L496 22 Q413 -15 312 -14 Q165 -14 82.5 67 Q0 148 0 292 Q0 393 42 474.5 Q84 556 163 602 Q242 648 333.5 648 Q425 648 492 611 Q559 574 596 506.5 Q633 439 632 352 Q632 293 614 244 Q596 195 563.5 168 Q531 141 496 141 Q427 141 406 194 L400 194 Q360 141 293 141 Q226 141 186 185 Q146 229 146 308 Q146 387 197 440.5 Q248 494 334 494 Q364 494 405 486.5 Q446 479 472 469 L464 273 Q464 217 490.5 216.5 Q517 216 532.5 254.5 Q548 293 548 355.5 Q548 418 522 468 Q496 518 449.5 545 Q403 572 333.5 572 Q264 572 206 537 Q88 466 87 294 Z" /><glyph glyph-name="airport" unicode="&#xe020;" d="M810 300 Q846 266 816 257 Q806 254 776 258 L517 320 Q495 326 476 312 Q457 298 457 274 L450 165 Q449 140 462.5 115 Q476 90 497 79 L533 61 Q586 32 586 23 Q586 14 535 26 L532 26 L469 40 Q455 44 435 46 Q425 21 413 21 Q401 21 389 46 Q368 45 356 40 L294 26 Q240 14 240 22.5 Q240 31 294 61 L328 79 Q349 91 363 114.5 Q377 138 377 160 L377 165 L371 273 Q369 298 354 309 Q339 320 328 320 L310 320 L52 258 Q39 255 29 256 Q-3 256 0 273 Q2 285 19 300.5 Q36 316 57 326 L306 454 Q328 466 343 486.5 Q358 507 357.5 533 Q357 559 353 571 L353 573 Q353 600 371.5 631.5 Q390 663 412.5 663 Q435 663 454 631.5 Q473 600 473 573 L473 571 Q469 547 468.5 528 Q468 509 482.5 488.5 Q497 468 521 455 L771 326 Q793 316 810 300 Z" /><glyph glyph-name="chapel" unicode="&#xe021;" d="M171 283 Q171 273 182 273 L204 273 Q208 273 212 276 Q216 279 216 283 L216 307 Q216 318 210 328 L200 338 Q196 342 192 342 Q188 342 186 338 L177 328 Q171 320 171 307 L171 283 ZM367 246 Q388 223 386 195 L386 31 Q386 19 377 11 Q368 3 354 3 L289 3 Q276 3 266 11.5 Q256 20 256 31 L256 40 L255 107 Q254 138 236 158 L212 189 Q205 199 193.5 199 Q182 199 174 189 L148 158 Q130 133 130 107 L130 40 L129 40 L129 31 Q129 19 119.5 11 Q110 3 97 3 L31 3 Q18 3 9 11.5 Q0 20 0 31 L0 195 Q0 221 20 246 L174 423 Q182 433 194 432.5 Q206 432 213 423 L367 246 ZM174 458 L138 418 Q130 408 123.5 409.5 Q117 411 117 424 L117 523 Q117 554 134 577 L177 644 Q184 654 193 654 Q202 654 210 644 L253 577 Q269 552 269 523 L269 424 Q269 412 263 410.5 Q257 409 249 418 L213 458 Q205 468 193.5 468 Q182 468 174 458 Z" /><glyph glyph-name="museum" unicode="&#xe022;" d="M0 61 Q0 71 12 73 L564 73 Q568 73 572 69.5 Q576 66 576 61 L576 35 Q576 26 570 15 L564 6 Q552 2 538 2 L36 2 Q22 2 14 6 L6 15 Q2 28 0 38 L0 61 ZM438 384 L538 384 Q542 384 547 380.5 Q552 377 552 372 L552 368 Q552 355 549 355.5 Q546 356 546 353 Q547 348 540.5 342 Q534 336 530 326 L530 172 Q530 164 536 160 Q542 156 544 152 Q546 148 546 145 Q546 142 549 142 Q552 142 552 129 L552 125 Q552 121 548 116.5 Q544 112 538 112 L438 112 Q434 112 430 116.5 Q426 121 426 125 L426 129 Q426 142 430 142 Q434 142 434 148.5 Q434 155 440 156 Q444 160 446 172 L446 326 Q446 336 439 343 Q432 350 433 353 Q434 356 430 356 Q426 356 426 368 L426 372 Q426 376 430 380 Q434 384 438 384 ZM350 125 Q350 112 338 112 L238 112 Q234 112 229 116.5 Q224 121 224 125 L224 129 Q224 142 228 142 Q232 142 232 144.5 Q232 147 234 151.5 Q236 156 240 158 Q244 160 246 172 L246 326 Q246 331 240 337.5 Q234 344 233 347 Q232 350 232 353 Q232 356 228 356 Q224 356 224 368 L224 372 Q224 376 229 380 Q234 384 238 384 L338 384 Q342 384 346 380.5 Q350 377 350 372 L350 368 Q350 355 348 355.5 Q346 356 346 352.5 Q346 349 338 338.5 Q330 328 330 326 L330 172 Q330 168 335 162 Q340 156 341 153 Q342 150 346 148 L346 146 Q346 142 348 142 Q350 142 350 129 L350 125 ZM36 384 L138 384 Q142 384 146 380.5 Q150 377 150 372 L150 368 Q150 355 147 355.5 Q144 356 143 352.5 Q142 349 136 338.5 Q130 328 130 326 L130 172 Q130 168 135 162 Q140 156 140 153 Q140 150 142 148 L142 146 Q142 142 146 142 Q150 142 150 129 L150 125 Q150 121 146 116.5 Q142 112 138 112 L36 112 Q32 112 28 116.5 Q24 121 24 125 L24 129 Q24 142 27 142 Q30 142 30 144.5 Q30 147 32 151.5 Q34 156 38 158 Q42 160 42 172 L42 326 Q42 330 37 337 Q32 344 31 347 Q30 350 30 353 Q30 356 27 356 Q24 356 24 368 L24 372 Q24 376 28 380 Q32 384 36 384 ZM276 619 Q282 623 288 623 Q294 623 298 619 L564 457 Q574 450 570 437 L564 430 Q552 426 540 426 L36 426 Q22 426 12 430 L6 437 Q2 450 8 457 L276 619 Z" /><glyph glyph-name="monument" unicode="&#xe023;" d="M136 496 Q136 512 152 512 L250 512 L250 554 Q248 564 240 572 Q232 580 222 579 L160 579 Q150 580 142 572 Q138 565 134 554 L124 446 L216 446 Q222 446 227 440.5 Q232 435 232 428.5 Q232 422 227 417.5 Q222 413 216 413 L120 413 L116 376 L212 376 Q226 376 226 360 Q226 352 221 348 Q216 344 212 344 L112 344 L100 189 Q98 163 122 163 L254 163 Q265 163 271.5 170.5 Q278 178 276 189 L268 278 L160 278 Q154 278 148 282.5 Q142 287 142 294.5 Q142 302 148 306 Q154 310 160 310 L268 310 L254 481 L152 481 Q146 481 141 485.5 Q136 490 136 496 ZM370 94 L370 27 Q370 16 363 9.5 Q356 3 346 3 L24 3 Q14 3 7 10 Q0 17 0 27 L0 94 Q0 112 11 127.5 Q22 143 40 148 L94 603 Q98 626 122 626 L258 626 Q269 626 277.5 619.5 Q286 613 286 603 L332 147 Q349 143 359.5 127.5 Q370 112 370 94 Z" /><glyph glyph-name="sport_centre" unicode="&#xe024;" d="M511 152 Q570 220 568 312 Q566 404 501 470.5 Q436 537 342 537 Q248 537 182 470 Q116 403 115 309 Q117 309 117 308.5 Q117 308 121 308 Q135 310 146 313 L167 318 Q179 321 191.5 315.5 Q204 310 211 299 L243 243 Q249 232 248 218 Q247 204 239 194 L208 159 Q208 159 189 136 L188 135 Q254 73 345 74 L346 76 Q347 76 350 106 L356 154 Q358 166 367.5 176.5 Q377 187 389 189 L451 201 Q463 203 476 197 Q489 191 494 180 L495 180 L502 166 L510 154 L511 152 ZM650.5 221 Q629 137 567.5 74 Q506 11 423.5 -11 Q341 -33 259 -11 Q177 11 115.5 74 Q54 137 32.5 221 Q11 305 32.5 389.5 Q54 474 115 536 Q161 583 221 607.5 Q281 632 341.5 632 Q402 632 462 607.5 Q522 583 567 536 Q628 473 650 389 Q672 305 650.5 221 ZM473 411 L464 327 Q463 315 453.5 304 Q444 293 432 291 L351 273 Q339 270 326 276.5 Q313 283 307 293 L266 367 Q260 378 261.5 392 Q263 406 271 416 L327 479 Q335 488 349 491 Q363 494 374 489 L450 454 Q461 449 467.5 436 Q474 423 473 411 Z" /><glyph glyph-name="information" unicode="&#xe025;" d="M224 66 Q238 49 270 48 Q277 48 282 45.5 Q287 43 287 23 Q287 14 272.5 8.5 Q258 3 238 3 L49 3 Q28 3 14 8.5 Q0 14 0 23 Q0 43 6 46 Q8 48 25 48 Q42 48 58 61 Q62 65 72 79 Q76 87 76 145 L76 306 Q76 351 75 362.5 Q74 374 63 384 Q52 397 30.5 399 Q9 401 8 404 Q1 408 0.5 420.5 Q0 433 14.5 439.5 Q29 446 49 446 L162 446 Q183 446 198 432 Q213 418 213 400 L213 145 Q213 101 214 90 Q215 79 224 66 ZM134 527 Q76 527 53 563 Q46 576 45 592 Q45 638 98 652 Q132 662 177 642 Q202 625 202 592.5 Q202 560 179 543.5 Q156 527 134 527 Z" /><glyph glyph-name="hospital" unicode="&#xe026;" d="M480 554 Q418 590 344 590 Q270 590 208 554 Q146 518 110 455.5 Q74 393 74 320.5 Q74 248 110 185 Q146 122 208 86.5 Q270 51 344 51 Q418 51 480 86.5 Q542 122 578 185 Q614 248 614 320.5 Q614 393 578 455.5 Q542 518 480 554 ZM477 4.5 Q414 -23 344 -23 Q274 -23 210 4.5 Q146 32 100 77 Q54 122 27 186.5 Q0 251 0 320.5 Q0 390 27 453.5 Q54 517 100 563 Q146 609 210 636 Q274 663 344 663 Q414 663 477 636 Q540 609 586 563 Q632 517 660 453.5 Q688 390 688 320.5 Q688 251 660 186.5 Q632 122 586 77 Q540 32 477 4.5 ZM536 348 L536 302 Q536 289 528 280 Q520 271 506 271 L426 271 Q413 271 405.5 262.5 Q398 254 398 241 L398 161 Q398 148 389 139 Q380 130 366 130 L320 130 Q307 130 298.5 139 Q290 148 290 161 L290 241 Q290 254 281 262.5 Q272 271 258 271 L180 271 Q168 270 158 280 Q148 290 148 302 L148 348 Q148 361 157 369.5 Q166 378 180 378 L258 378 Q271 378 280.5 387 Q290 396 290 408 L290 489 Q290 502 298 510 Q306 518 320 518 L366 518 Q379 518 388.5 509.5 Q398 501 398 489 L398 408 Q398 395 407 386.5 Q416 378 426 378 L506 378 Q519 378 527.5 369.5 Q536 361 536 348 Z" /><glyph glyph-name="golf" unicode="&#xe027;" d="M72 153 L72 54 Q86 50 100 50 Q114 50 132 54 Q130 59 128 63 L128 153 Q158 147 181 123.5 Q204 100 203 70 Q202 40 174 14 Q144 -10 102 -10 Q60 -10 30 14 Q0 38 0 69.5 Q0 101 20 122.5 Q40 144 72 153 ZM142 600 Q198 574 288 566 Q318 562 354 547 Q394 533 424 501 Q394 505 350 488 Q318 474 288 449 Q202 380 142 371 L142 600 ZM86 636 Q101 623 117 612 L117 70 Q110 66 102 67 L86 70 L86 636 Z" /><glyph glyph-name="picnic_site" unicode="&#xe028;" d="M700 102 Q712 98 711 80 Q710 62 700 58 Q675 48 648 49 L576 49 Q563 49 561.5 43 Q560 37 566 30 L597 -1 Q604 -8 602 -14.5 Q600 -21 586 -21 L552 -21 Q524 -18 504 -1 L476 30 Q469 37 455 43 Q441 49 430 49 L280 49 Q256 50 234 30 L204 -1 Q184 -21 157 -21 L122 -21 Q111 -21 108.5 -15.5 Q106 -10 113 -2 L144 30 Q151 37 148.5 43 Q146 49 135 49 L62 49 Q34 48 10 58 Q0 62 0 78.5 Q0 95 8 100 L10 102 Q34 112 62 112 L648 112 Q675 112 700 102 ZM626 352 Q643 352 649.5 341.5 Q656 331 648 318 L579 194 Q572 179 553 168 Q534 157 519 157 L332 157 Q336 164 337 175 L337 198 L485 198 Q500 198 511 212 L536 250 Q540 256 537 260.5 Q534 265 528 265 L337 265 L337 352 L447 352 Q443 338 449 328 Q460 302 486 302 Q512 302 524 320 L548 352 L626 352 ZM271 293 L271 364 Q239 357 204.5 357 Q170 357 137 364 L137 293 Q171 286 205 286 Q239 286 271 293 ZM229 621 Q250 621 251 600 Q251 587 245 587.5 Q239 588 239 572 L239 499 Q240 482 248 474 Q248 474 262 458 Q268 452 278 433 Q288 414 288 397 L288 175 Q288 169 282 163 Q276 157 267 157 L134 157 Q125 157 119 162 Q113 167 113 175 L113 397 Q113 414 121 432 Q129 450 140 460 L149 468 Q163 481 162 499 L162 572 Q162 589 156 588.5 Q150 588 150 600 Q150 621 172 621 L229 621 ZM513 345 Q504 328 486 339 Q479 343 476.5 351.5 Q474 360 479 367 L586 512 Q590 519 600 521.5 Q610 524 617 518 Q632 506 622 492 L513 345 Z" /><glyph glyph-name="drag_lift" unicode="&#xe029;" d="M15 622 Q18 622 19 620 L200 563 Q208 569 214 570 L221 570 Q242 570 250 547 L605 434 Q622 431 616.5 415.5 Q611 400 601 400 Q599 400 595 401 L245 512 Q235 499 224 500 Q210 483 208 461 Q208 423 244 399 L244 416 Q244 424 250 430 Q256 436 263 436 L325 436 Q333 436 339 430.5 Q345 425 345 416 L345 302 Q345 292 338.5 286.5 Q332 281 325 281 L320 281 L320 52 Q439 54 490 72 Q493 86 502.5 95 Q512 104 526.5 104 Q541 104 552 92.5 Q563 81 563 65.5 Q563 50 553.5 39 Q544 28 533 26 Q484 -9 298.5 -9 Q113 -9 56 26 Q43 28 34.5 39 Q26 50 26 65.5 Q26 81 37 92.5 Q48 104 62 104 Q90 104 100 72 Q151 55 269 52 L269 281 L263 281 Q255 281 249.5 286.5 Q244 292 244 302 L244 356 Q212 370 192 398.5 Q172 427 172 459.5 Q172 492 190 518 Q186 525 187 532 L11 588 Q-3 593 0 608 Q3 622 15 622 Z" /><glyph glyph-name="construction" unicode="&#xe02a;" d="M275 336 Q317 290 362 247 Q342 226 108 -12 Q88 -32 78 -31.5 Q68 -31 47.5 -10 Q27 11 13.5 25 Q0 39 0 48.5 Q0 58 9 68 Q55 114 275 336 ZM529 369 Q532 374 540 374 Q548 374 554 369 L610 311 Q622 299 610 285 L535 209 Q530 205 521.5 204 Q513 203 508 209 L452 265 Q445 274 452 294 L529 369 ZM142 608 Q328 580 358 577 Q378 573 401 551.5 Q424 530 458 496 Q490 461 505.5 448 Q521 435 521 423 Q521 411 508 399 L401 292 L311 378 L319 394 Q329 414 329 436 Q329 458 315 481 Q299 504 252 534 Q205 562 182 574 L145 593 L142 608 Z" /><glyph glyph-name="islamism" unicode="&#xe02b;" d="M496 582 L514 512 L584 494 L534 443 L550 376 L485 394 L433 343 L417 413 L348 432 L399 483 L381 548 L445 531 L496 582 ZM257 594 Q246 587 237 578 Q214 564 196 544 Q120 468 120 360 Q118 252 194 176 Q270 100 376 100 Q482 100 559 176 Q580 196 589 207 L598 224 Q578 138 518 76 Q475 32 418.5 9 Q362 -14 304.5 -14 Q247 -14 190.5 8.5 Q134 31 91 76 Q33 134 11 212 Q-11 290 11 370 Q33 450 91 508 Q159 578 257 594 Z" /><glyph glyph-name="vineyard" unicode="&#xe02c;" d="M44 385 Q76 378 100 378 L134 378 Q162 354 160.5 319.5 Q159 285 137.5 263 Q116 241 83 241 Q50 241 28 263.5 Q6 286 6.5 324.5 Q7 363 44 385 ZM320 421 Q361 401 364 352 Q363 320 341.5 297 Q320 274 288 274 L287 275 Q255 275 232.5 297.5 Q210 320 210 346 Q210 372 219 390 Q267 400 320 421 ZM468 455 Q525 451 578 418 Q587 401 587 377 Q587 353 567.5 328.5 Q548 304 517 300 Q511 299 494.5 298.5 Q478 298 453 317 Q422 341 422 387 Q421 400 433 422 Q445 444 468 455 ZM218 568 Q238 569 256 569 Q456 569 593 446 Q523 492 448 492 Q431 492 401 487 Q371 482 304.5 454 Q238 426 190 421 Q142 416 126 416 Q81 417 43.5 430.5 Q6 444 0 445 Q20 548 157 562 Q165 563 170 564 Q169 614 165 634 Q182 630 201 623 L218 568 ZM273.5 90.5 Q295 113 327 113 Q359 113 381.5 90.5 Q404 68 404 36 Q404 4 381.5 -18.5 Q359 -41 327 -41 Q295 -41 273.5 -18.5 Q252 4 252 36 Q252 68 273.5 90.5 ZM344 253 Q366 284 399 284 Q432 284 458.5 264 Q485 244 485 203 Q485 179 467 157 Q446 129 405 129 Q380 128 354 148 Q328 168 329 207 Q329 232 344 253 ZM259 124 Q236 101 204.5 101 Q173 101 150 124 Q127 147 127 179 Q127 211 150 233.5 Q173 256 204.5 256 Q236 256 259 233.5 Q282 211 282 179 Q282 147 259 124 Z" /><glyph glyph-name="lighthouse" unicode="&#xe02d;" d="M477 575 Q487 571 486 567 Q486 562 474 562 Q322 548 208 562 Q186 566 206 575 Q250 593 318 633 Q328 638 342.5 638 Q357 638 365 633 Q434 593 477 575 ZM395 457 Q396 453 396 445.5 Q396 438 388.5 429 Q381 420 364 420 L321 420 Q305 420 298 428.5 Q291 437 291 445 L291 457 L298 490 Q302 506 315 516.5 Q328 527 343 527 Q358 527 371.5 516 Q385 505 389 490 L395 457 ZM423 91 L423 92 Q438 96 440 82 L440 37 Q440 31 435 23.5 Q430 16 424 13.5 Q418 11 412.5 15.5 Q407 20 407 26 L407 71 Q407 77 412 83 Q417 89 423 91 ZM373 65 L373 21 Q373 15 368 8 Q363 1 328 1 Q293 1 250 14 Q234 22 234 37 L234 82 Q234 96 250 92 Q290 79 317.5 79 Q345 79 354 79.5 Q363 80 368 75.5 Q373 71 373 65 ZM343 162 Q343 170 348 174.5 Q353 179 372.5 180.5 Q392 182 411 188 Q440 197 440 180 L440 144 Q440 137 435 129 Q422 113 360 110 Q354 109 348.5 113.5 Q343 118 343 123 L343 162 ZM308 163 L308 125 Q308 111 292 112 Q247 117 240 129 Q236 135 234 144 L234 180 Q234 196 252.5 190.5 Q271 185 289.5 181 Q308 177 308 163 ZM396 266 Q396 281 423 291 Q429 294 434.5 289.5 Q440 285 440 278 L440 241 Q440 228 424.5 220 Q409 212 402.5 217.5 Q396 223 396 229 L396 266 ZM365 262 L365 225 Q365 219 361 213 Q356 206 324.5 206 Q293 206 250 220 Q234 228 234 241 L234 278 Q234 284 238 288.5 Q242 293 250 291 Q296 278 341 277 L350 277 Q356 277 360.5 272.5 Q365 268 365 262 ZM314 366 Q314 373 319 377.5 Q324 382 328 382 L335 382 Q381 382 405 389.5 Q429 397 434.5 394 Q440 391 440 384 L440 340 Q440 334 435 327 Q430 320 423 319 Q377 305 330 305 Q324 306 319 311.5 Q314 317 314 323 L314 366 ZM283 370 L283 328 Q282 321 278 316 Q273 312 253.5 318.5 Q234 325 234 340 L234 384 Q234 390 238 393.5 Q242 397 250 394.5 Q258 392 265.5 390 Q273 388 278 382 Q283 376 283 370 ZM447 495 Q440 495 438 506 Q433 528 446 528 L657 566 Q661 568 665 562 Q670 556 670 550 Q671 537 660 534 L448 496 Q448 495 447 495 ZM652 388 L470 435 Q466 436 463.5 442 Q461 448 462 454 Q464 469 473 467 L656 418 Q666 415 664 401 Q662 387 654 387 Q653 387 652 388 ZM224 489 L223 489 L10 527 Q0 529 0 541 Q0 562 13 562 L224 523 Q228 522 233 514 Q238 506 233 497.5 Q228 489 224 489 ZM32 374 Q23 374 21 387 Q19 400 30 405 L211 454 Q215 455 219 451 Q229 441 221 429 Q219 424 216 423 L33 374 L32 374 Z" /><glyph glyph-name="tower" unicode="&#xe02e;" d="M195 301 Q206 303 207 313 L207 355 Q207 356 186 397 Q183 401 181 401 Q179 401 177 397 L155 367 Q153 354 153 343 L153 313 Q153 301 166 301 L195 301 ZM251 582 Q259 582 259 571 L259 527 Q259 522 263 518 Q267 514 272 514 L301 514 Q305 514 308.5 518.5 Q312 523 312 527 L312 571 Q312 575 315.5 578.5 Q319 582 324 582 L351 582 Q355 582 358.5 578.5 Q362 575 361 571 L361 461 Q362 448 355 438 L326 400 Q320 389 318 378 L318 14 Q318 10 314 5 Q310 0 306 -1 L247 -8 Q234 -8 234 3 L234 106 L186 192 Q182 200 177 192 L126 106 Q125 94 126 84 L126 3 Q125 -8 115 -8 L54 -1 Q50 0 46.5 5 Q43 10 43 14 L43 378 Q43 391 36 400 L7 438 Q0 449 0 461 L0 571 Q0 575 3.5 578.5 Q7 582 11 582 L40 582 Q44 582 47.5 578.5 Q51 575 51 571 L51 527 Q51 522 54 518 Q57 514 61 514 L90 514 Q94 514 98.5 518.5 Q103 523 103 527 L103 571 Q103 575 106.5 578.5 Q110 582 114 582 L144 582 Q148 582 151.5 578.5 Q155 575 155 571 L155 526 Q155 514 166 512 L195 512 Q205 514 205 526 L205 571 Q205 575 210 578.5 Q215 582 218 582 L251 582 Z" /><glyph glyph-name="wayside_cross" unicode="&#xe02f;" d="M238 652 Q261 652 266 624 L266 517 Q266 504 274 496.5 Q282 489 294 489 L420 489 Q432 489 440 480.5 Q448 472 448 460 L448 433 Q448 421 439 413.5 Q430 406 420 406 L294 406 Q282 406 273 397.5 Q264 389 266 378 L266 157 L378 26 Q382 16 377 8.5 Q372 1 360 1 L96 1 Q83 1 78.5 8 Q74 15 80 26 L190 157 L190 378 Q190 391 182 398 Q174 405 162 406 L28 406 Q16 406 8 414 Q0 422 0 433 L0 460 Q0 473 9 481 Q18 489 28 489 L162 489 Q174 489 182 496.5 Q190 504 190 517 L190 624 Q190 636 198 644 Q206 652 220 652 L238 652 Z" /><glyph glyph-name="theatre" unicode="&#xe030;" d="M340 176 L350 152 Q360 128 382 100.5 Q404 73 426 70 Q434 68 445 68 Q456 68 471.5 73 Q487 78 501 86 Q516 94 530 108 Q544 122 548 126 L556 133 L540 130 Q519 126 495 125 Q399 126 340 176 ZM617 264 Q607 276 590.5 285.5 Q574 295 566 295 L557 295 Q542 294 522.5 280 Q503 266 493 250 L502 238 Q511 226 526.5 217.5 Q542 209 551 208 L561 209 Q578 209 597.5 224.5 Q617 240 626 255 L617 264 ZM425 302 Q395 353 321 313 L323 299 Q328 286 338 270 Q356 242 385 242 Q408 244 442 259 L438 273 Q436 285 425 302 ZM322 473 Q334 487 341.5 486.5 Q349 486 356.5 485 Q364 484 384 464.5 Q404 445 415.5 435.5 Q427 426 455.5 412 Q484 398 528 394 L537 394 Q567 391 622 418 Q643 428 651 428 L660 428 Q690 421 689 348 Q689 309 679 258 Q659 163 616.5 97.5 Q574 32 520 2 Q478 -22 438 -22 Q426 -22 417 -21 L416 -21 Q365 -9 328 38 Q266 117 266 248 Q266 289 272 336 Q286 431 322 473 ZM150 494 Q138 498 124 498 Q90 498 72 461 Q61 438 62 418 L75 413 Q92 408 109 408 Q126 408 140.5 415.5 Q155 423 164 442.5 Q173 462 174.5 471.5 Q176 481 178 487 L169 490 L150 494 ZM387 500 Q355 532 332.5 532 Q310 532 295 517 Q282 523 256 512.5 Q230 502 219 493 L222 483 Q236 454 256 440 Q244 407 238 368 Q194 378 155 330 Q129 298 123.5 283.5 Q118 269 116 266 L130 275 Q143 283 175 295.5 Q207 308 231 309 Q229 288 229 259 Q229 230 235 195 L229 195 Q189 195 145 224 Q101 253 63 316.5 Q25 380 13 448 Q1 516 0 551 Q0 621 23 621 Q28 621 50.5 611 Q73 601 98 591 Q123 581 145 581 Q204 581 237.5 598 Q271 615 285 629.5 Q299 644 312 654 Q335 672 342 657 Q379 608 387 500 Z" /><glyph glyph-name="train" unicode="&#xe031;" d="M93 137 L150 137 Q160 137 159 125 L142 10 Q138 -2 128 -2 L7 -2 Q-3 -2 2 8 L76 127 Q83 137 93 137 ZM324 125 Q324 136 333 137 L389 137 Q399 137 405 127 L482 8 Q486 -2 476 -2 L355 -2 Q346 -2 342 10 L324 125 ZM401.5 259 Q389 270 374 270 Q359 270 348 259 Q337 248 337 232.5 Q337 217 348 205.5 Q359 194 374 194 Q389 194 401.5 205.5 Q414 217 414 232.5 Q414 248 401.5 259 ZM135 259 Q124 270 108.5 270 Q93 270 82 259 Q71 248 71 232.5 Q71 217 82 205.5 Q93 194 108.5 194 Q124 194 135 205.5 Q146 217 146 232.5 Q146 248 135 259 ZM297 452 Q285 452 275 447 L269 439 Q265 426 264 418 L264 344 Q264 330 275 317 Q286 312 297 311 L399 311 Q412 312 421 317 Q432 332 432 344 L432 418 Q432 429 421 447 Q410 451 399 452 L297 452 ZM83 452 Q73 452 63 447 L57 439 Q53 426 52 418 L52 344 Q52 334 57 324 L63 317 Q74 312 83 311 L186 311 Q198 312 207 317 L215 324 Q219 334 219 344 L219 418 Q219 430 215 439 L207 447 Q197 451 186 452 L83 452 ZM302.5 553 Q278 562 242 562 Q206 562 181 553 Q156 544 156 533.5 Q156 523 181 515 Q206 507 242 507 Q278 507 302.5 515 Q327 523 327 533.5 Q327 544 302.5 553 ZM24 158 Q14 158 14 169 L14 464 Q14 476 20 482 L41 504 Q62 527 93 554 Q124 581 151.5 591.5 Q179 602 242 602 Q305 602 340 588 Q370 578 463 482 Q469 476 469 464 L469 169 Q469 165 466 161.5 Q463 158 459 158 L24 158 Z" /><glyph glyph-name="viewpoint" unicode="&#xe032;" d="M356 462 L506 462 L585 171 L585 14 Q585 5 559 -2 Q533 -9 497 -9 Q461 -9 434.5 -2.5 Q408 4 408 14 L407 14 L407 238 L356 238 L356 462 ZM263 462 L326 462 L326 262 L263 262 L263 462 ZM75 462 L229 462 L229 238 L176 238 L176 14 Q173 5 148.5 -2 Q124 -9 88 -9 Q52 -9 27 -2.5 Q2 4 0 14 L0 171 L75 462 ZM356 576 L480 576 L480 499 L356 499 L356 576 ZM104 576 L229 576 L229 499 L104 499 L104 576 Z" /><glyph glyph-name="tram" unicode="&#xe033;" d="M204 73 L248 73 L298 -4 L216 -4 L204 73 ZM56 73 L102 73 L90 -4 L6 -4 L56 73 ZM183 212.5 Q172 225 154 225 Q136 225 123 212.5 Q110 200 110 182 Q110 164 123 151.5 Q136 139 154 139 Q172 139 183 151.5 Q194 164 194 182 Q194 200 183 212.5 ZM152 467 Q128 468 109 460 Q72 445 58 415 Q36 379 36 342 L36 271 L266 271 L266 341 Q266 379 254 404 Q242 429 229 440.5 Q216 452 196 459.5 Q176 467 152 467 ZM102 501 Q154 515 206 501 L224 538 L82 538 L102 501 ZM26 573 L280 573 Q287 573 292.5 568 Q298 563 298 555.5 Q298 548 293 543 Q288 538 280 538 L262 538 L236 486 Q278 459 291 414 Q304 369 303 345 L305 333 L305 97 L0 97 L0 345 Q0 367 10 399 Q28 460 70 487 L42 538 L26 538 Q19 538 13.5 543 Q8 548 8 555.5 Q8 563 13.5 568 Q19 573 26 573 Z" /><glyph glyph-name="tree_cinofer" unicode="&#xe034;" d="M276 420 Q288 420 297 430 Q306 440 314 440 Q322 440 341 425 Q360 410 380 380.5 Q400 351 417 325.5 Q434 300 442 293 Q415 263 383.5 262.5 Q352 262 321 287 Q290 312 268 312 Q236 312 216 274 Q204 252 181.5 252 Q159 252 138.5 267 Q118 282 96 282 Q94 282 92 282 Q102 293 133 336.5 Q164 380 190 401.5 Q216 423 221 435 Q226 447 228 449 L228 448 Q231 448 245.5 434 Q260 420 274 420 L276 420 ZM234 25 Q249 21 269.5 21 Q290 21 314 32 L326 -24 L226 -23 Q230 -2 234 25 ZM232.5 250.5 Q250 281 270 281 Q290 281 321 256 Q352 231 382.5 230.5 Q413 230 432 244 L536 68 L522 62 Q470 41 432 74 Q393 104 334 65 Q266 19 188 65 Q122 102 34 78 L0 70 L126 243 L138 236 Q160 218 182 220 Q215 220 232.5 250.5 ZM274 446 Q270 447 257 460 Q244 473 238 474 Q232 475 226 475 Q213 475 204 449 Q192 422 166 418 Q164 416 162 418 Q154 418 134 443 Q162 457 216 553 Q238 594 258 651 Q292 562 356 490 Q370 476 378 466 L384 461 Q378 449 358 448.5 Q338 448 306 471 Q303 473 300.5 472.5 Q298 472 293 459.5 Q288 447 282 446 L274 446 Z" /><glyph glyph-name="university" unicode="&#xe035;" d="M63 64 L63 51 Q58 45 61.5 34.5 Q65 24 65 19.5 Q65 15 50 1 Q35 -13 21.5 -13.5 Q8 -14 3 2 Q-2 18 4.5 32 Q11 46 5 52 L5 64 Q16 74 16 110 L16 257 Q16 271 21 278 Q26 285 33.5 280.5 Q41 276 47 263.5 Q53 251 53 236 L53 110 Q53 74 63 64 ZM424 110 L576 197 Q583 201 593 181.5 Q603 162 610.5 137.5 Q618 113 617.5 101.5 Q617 90 609.5 75 Q602 60 592 53 L401 -30 Q388 -36 368 -36.5 Q348 -37 338 -30 L147 52 Q137 60 129.5 74 Q122 88 122 95 L122 105 L128 181 Q130 195 140 199 Q150 203 162 197 L313 110 Q350 88 360 82 Q370 76 383 85 Q396 94 424 110 ZM26 340 Q13 347 14.5 356 Q16 365 28 369 L347 476 Q360 480 370 482 L382 482 Q399 482 412 476 L716 369 Q730 365 730 355.5 Q730 346 719 339 L403 155 Q391 148 382 148 L372 148 Q355 148 341 155 L26 340 Z" /><glyph glyph-name="tram_stop" unicode="&#xe036;" d="M375 410 L375 454 L175 454 L175 410 L245 410 L245 203 L301 203 L301 410 L375 410 ZM349 516 Q379 516 400 496.5 Q421 477 420 450 L420 220 Q420 193 400 173 Q380 153 349 153 L175 153 L175 31 L274 31 Q282 31 287 26.5 Q292 22 292 16 Q292 10 286.5 5.5 Q281 1 274 1 L16 1 Q11 1 5.5 5.5 Q0 10 0 16 Q-2 22 4 26 Q10 30 16 31 L108 31 L108 544 Q74 561 74 592.5 Q74 624 93.5 642 Q113 660 140 660 Q167 660 187 643 Q207 626 207 594 Q207 562 175 544 L175 515 Q177 516 180 516 L349 516 Z" /><glyph glyph-name="underground" unicode="&#xe037;" d="M410 114 L478 114 L552 -4 L428 -4 L410 114 ZM194 114 L260 114 L242 -4 L118 -4 L194 114 ZM228 238.5 Q218 248 204 248 Q190 248 181 238.5 Q172 229 172 215.5 Q172 202 181 193 Q190 184 204 184 Q218 184 228 193 Q238 202 238 215.5 Q238 229 228 238.5 ZM491 240.5 Q480 250 468 250 Q456 250 447 240.5 Q438 231 438 217.5 Q438 204 447 195 Q456 186 468 186 Q480 186 491 195 Q502 204 502 217.5 Q502 231 491 240.5 ZM336 491 Q257 491 213.5 454.5 Q170 418 171 363 L171 303 L500 303 L500 377 Q496 410 468 446 Q454 464 418.5 477.5 Q383 491 336 491 ZM514 465 Q540 434 548 396 Q552 379 552 373 L552 137 L118 137 L118 373 Q130 435 156 465 Q212 532 333 532 Q454 532 514 465 ZM74 566 Q164 658 336 658 Q508 658 594 566 Q652 508 662 410 Q664 395 664 385 L664 45 L586 45 L586 388 Q590 405 576 447 Q528 579 338 580 L336 580 Q146 580 94 455 Q80 422 80 408 L80 45 L0 45 L0 386 Q0 444 32 508 Q48 540 74 566 Z" /><glyph glyph-name="adit" unicode="&#xe038;" d="M500 334 L437 270 Q429 262 428.5 249.5 Q428 237 437 229 L606 60 Q615 51 615 39 Q615 27 606 17 L586 -3 Q578 -11 566 -11.5 Q554 -12 544 -3 L374 166 Q366 175 353 175.5 Q340 176 332 166 L173 6 Q165 -3 152.5 -3 Q140 -3 130 6 L110 27 Q101 36 100.5 48 Q100 60 110 70 L269 229 Q277 237 277.5 249.5 Q278 262 269 270 L202 338 Q193 346 181 346.5 Q169 347 160 338 L140 318 Q132 310 117 303 Q102 296 89 296 L28 296 Q15 296 7.5 304.5 Q0 313 0 326 L2 391 Q4 420 24 440 Q103 519 183 600 Q192 609 204 608.5 Q216 608 224 600 L302 523 Q311 514 311.5 502 Q312 490 302 481 L266 444 Q257 435 256.5 422.5 Q256 410 266 400 L332 334 Q340 326 353.5 326 Q367 326 374 334 L437 397 Q445 405 445.5 417.5 Q446 430 437 437 L395 481 Q386 490 386 501 Q386 512 395 523 L472 600 Q481 609 493 608.5 Q505 608 515 600 L552 564 Q556 560 562.5 552 Q569 544 597 518 L673 440 Q695 411 697 391 L697 326 Q698 313 689.5 304.5 Q681 296 670 296 L608 296 Q595 296 580.5 303 Q566 310 559 318 L541 334 Q533 342 520.5 342 Q508 342 500 334 Z" /><glyph glyph-name="post_office" unicode="&#xe039;" d="M699 412 Q709 421 716.5 417.5 Q724 414 724 399 L724 74 Q724 61 717 57 Q710 53 701 63 L540 227 Q531 237 531 249.5 Q531 262 540 272 L699 412 ZM182 273 Q192 265 191.5 251.5 Q191 238 182 229 L26 67 Q16 57 8 60 Q0 63 0 78 L0 399 Q0 413 8 417.5 Q16 422 26 412 L182 273 ZM76 453 Q66 462 67.5 468 Q69 474 83 474 L643 474 Q671 474 648 453 L386 219 Q376 210 362 209.5 Q348 209 339 219 L76 453 ZM357 122 L369 122 Q382 129 407 151 L449 190 Q459 198 472.5 197.5 Q486 197 495 188 L656 25 Q665 15 663 8.5 Q661 2 647 2 L74 2 Q61 2 58.5 8.5 Q56 15 67 25 L225 190 Q236 199 250.5 199 Q265 199 276 190 L319 151 Q344 128 357 122 Z" /><glyph glyph-name="spring" unicode="&#xe03a;" d="M123 87 Q180 42 223 38 Q269 38 304 68 Q339 98 345 144 Q324 168 304 167 Q270 167 223.5 125.5 Q177 84 144 84 Q133 83 123 87 ZM324 236 Q284 287 223 286 Q177 286 142.5 256 Q108 226 100 181 Q122 158 148 158 Q174 158 220 195 Q266 233 279.5 236.5 Q293 240 303 240 Q313 240 324 236 ZM223 660 Q282 509 351 391 Q377 347 400 307 Q446 225 445 164 Q445 71 380 6.5 Q315 -58 223.5 -58 Q132 -58 66 6.5 Q0 71 0 164 Q1 220 53 308 Q77 348 103 392 Q178 519 223 660 Z" /><glyph glyph-name="stadium" unicode="&#xe03b;" d="M720 237 L720 237 ZM2 237 Q14 212 114 193 Q214 174 362 174 Q510 174 609 193 Q708 212 720 237 L654 61 L652 61 Q652 39 599 21.5 Q546 4 462 -4 L462 86 Q462 92 457 98 Q452 104 446 104 L278 104 Q271 104 265.5 99 Q260 94 260 86 L260 -4 Q175 3 122.5 20.5 Q70 38 70 61 L68 61 L2 237 ZM431 32 L431 -8 Q431 -17 424.5 -23.5 Q418 -30 410 -30 L314 -30 Q305 -30 298.5 -23.5 Q292 -17 292 -8 L292 32 Q292 41 299 47 Q306 53 314 53 L410 53 Q419 53 425 47 Q431 41 431 32 ZM360 393 L362 393 Q520 394 626 361 L626 498 L630 497 L630 498 Q644 492 666 488 Q722 479 744 455 Q724 459 680 427 Q660 413 648 405 L648 353 Q722 326 720 294 L720 291 Q720 254 629 226 Q538 198 400 194 L324 194 Q187 198 93.5 226 Q0 254 0 291 L0 294 Q0 308 18 321 L18 498 Q35 491 59.5 487.5 Q84 484 105 478 Q126 472 144 455 Q142 456 138 456 Q114 456 83 433.5 Q52 411 38 405 L38 337 Q80 360 160 376 Q240 392 338 393 L336 503 L336 518 L334 603 Q335 603 343.5 599.5 Q352 596 376 592.5 Q400 589 421 583 Q442 577 458 561 Q456 562 454 562 Q432 563 390 534 Q368 520 360 511 L360 393 ZM542 238 Q616 251 616 270 Q616 289 542 301.5 Q468 314 362 314 Q256 314 181 301.5 Q106 289 106 270 Q106 251 181 238 Q256 225 362 225 Q468 225 542 238 Z" /><glyph glyph-name="swimming_pool" unicode="&#xe03c;" d="M348 117 Q401 167 462.5 166.5 Q524 166 572 119 Q580 113 588 100 Q530 134 480 132.5 Q430 131 395.5 125 Q361 119 348 117 ZM598 -26 Q538 -9 492 -8 L474 -8 Q430 -12 389 -21 Q348 -30 338 -32 Q372 -2 418 10.5 Q464 23 496 17 Q556 8 590 -17 L598 -26 ZM584 37 Q538 59 486 59 L472 59 Q414 56 340 29.5 Q266 3 240 -5 Q214 -13 182 -13 Q124 -13 70 22 Q28 52 0 100 Q86 48 198 47 Q276 47 366 73 Q422 87 463 86.5 Q504 86 545 67 Q586 48 610 24 L612 21 Q584 35 584 37 ZM220 282 L220 355 Q220 365 210 369 Q170 387 106 413 L106 341 Q106 330 110 328 Q134 318 220 282 ZM222 128 L220 202 Q220 211 216 212 Q192 223 108 259 L108 215 Q107 197 95.5 186 Q84 175 72 175 L70 175 Q55 176 44.5 188 Q34 200 34 219 Q31 456 31.5 515 Q32 574 65 612.5 Q98 651 148 654 L158 654 Q216 654 260 602 Q280 571 259 550 Q248 539 232 539 Q216 539 204 553 Q187 566 177.5 571 Q168 576 156 576 Q144 576 126 565 Q108 554 105.5 523.5 Q103 493 107.5 488.5 Q112 484 130 475 Q148 466 175 456 Q193 449 218 436 Q222 460 222 464 Q232 513 268 541 Q304 569 340 569 L346 569 Q418 563 458 501 Q481 476 457 448 Q446 436 430 437 Q406 437 396 462 Q378 488 349.5 488 Q321 488 306.5 470 Q292 452 292 430 L296 128 Q296 97 272 87 Q254 79 238.5 92.5 Q223 106 222 128 Z" /><glyph glyph-name="cityhall" unicode="&#xe03d;" d="M580 130 L530 130 L530 57 L580 57 L580 130 ZM494 130 L443 130 L443 57 L494 57 L494 130 ZM357 243.5 Q378 263 378 292 Q378 321 357 341.5 Q336 362 308 362 Q280 362 260 341.5 Q240 321 240 292 Q240 263 260 243.5 Q280 224 308 224 Q336 224 357 243.5 ZM182 130 L133 130 L133 57 L182 57 L182 130 ZM88 130 L38 130 L38 57 L88 57 L88 130 ZM406 423 Q416 423 416 412 L416 252 L534 252 Q544 252 552 244 L610 195 Q616 189 606 190 L416 190 L416 172 L606 172 Q610 172 613.5 169 Q617 166 617 162 L617 12 Q617 8 613.5 4 Q610 0 606 0 L358 0 L358 121 Q337 142 308.5 141.5 Q280 141 258 121 L258 0 L10 0 Q0 0 0 12 L0 162 Q0 172 10 172 L200 172 L200 190 L10 190 Q6 190 4 192 Q2 194 6 195 L64 244 Q72 251 82 252 L200 252 L200 412 Q200 416 204 419.5 Q208 423 212 423 L406 423 ZM344 303 Q354 303 354 292.5 Q354 282 344 282 L312 282 Q308 282 306 284 L266 320 Q258 327 264 335 Q270 343 280 336 L318 303 L344 303 ZM296 626 Q308 642 318 644 Q330 644 340 635 Q350 626 361 618.5 Q372 611 385 612 Q398 613 408 626 L408 564 Q398 550 386 548 Q374 546 356 560 Q338 574 322 578 L322 529 L430 438 L186 438 L294 529 L294 626 L296 626 Z" /><glyph glyph-name="bus" unicode="&#xe03e;" d="M65 208 Q54 196 54 179.5 Q54 163 65 151.5 Q76 140 92 140 Q108 140 120 151.5 Q132 163 132 179.5 Q132 196 120 208 Q108 220 92 220 Q76 220 65 208 ZM470 468 Q470 476 464 482.5 Q458 489 448 489 L196 489 L196 423 Q196 413 189 406 Q182 399 174 399 L65 399 L65 296 Q65 286 71.5 280 Q78 274 88 274 L262 274 Q263 306 290.5 328.5 Q318 351 357 351 Q396 351 423 329 Q450 307 452 275 Q459 276 464.5 283 Q470 290 470 296 L470 468 ZM470 151.5 Q482 163 482 179.5 Q482 196 470 208 Q458 220 443 220 Q428 220 416 208 Q404 196 404 179.5 Q404 163 416 151.5 Q428 140 443 140 Q458 140 470 151.5 ZM304 274 L410 274 Q409 288 392.5 298 Q376 308 356 308 Q336 308 320.5 298 Q305 288 304 274 ZM506 566 Q516 566 523 558 Q530 550 530 540 L530 108 Q530 98 523 91.5 Q516 85 506 85 L496 85 L496 30 Q496 10 481 -3.5 Q466 -17 443 -17 Q420 -17 405 -3 Q390 11 390 30 L390 85 L146 85 L146 30 Q146 10 131 -3.5 Q116 -17 93 -17 Q70 -17 54 -3 Q38 11 38 30 L38 85 L24 85 Q14 85 7 91.5 Q0 98 0 108 L0 540 Q0 550 8 558 Q16 566 24 566 L506 566 Z" /><glyph glyph-name="volcano" unicode="&#xe03f;" d="M490 43 Q501 29 503.5 31 Q506 33 498 49 L397 307 Q391 322 374.5 334 Q358 346 342 346 L229 344 Q213 344 202 331 Q191 318 192 300 L194 271 Q195 253 202 251.5 Q209 250 217 264.5 Q225 279 236.5 278 Q248 277 253 260 L275 202 Q280 185 291 185 Q302 185 311 199 L320 214 Q328 228 341.5 228.5 Q355 229 366 217 L490 43 ZM603 21 Q603 1 578 2 L25 2 Q8 2 3 13 Q0 17 0 23.5 Q0 30 5 39 L180 340 Q188 355 205 365.5 Q222 376 231 376 L361 376 Q378 376 397 365.5 Q416 355 425 340 L599 39 Q603 29 603 21 ZM274 428 Q289 424 306 424 Q323 424 323 434 Q323 441 317.5 452 Q312 463 312 469.5 Q312 476 317 482 Q322 488 328 487 L332 487 Q359 488 371 500 L404 540 Q412 548 408 552 L403 561 Q382 568 368 585 Q361 592 342 592 Q323 592 314 585 Q309 578 298.5 575.5 Q288 573 282 575 Q276 577 256 577 Q236 577 220.5 568.5 Q205 560 205 546 L205 537 Q212 532 214 522.5 Q216 513 210.5 505.5 Q205 498 213.5 487.5 Q222 477 246 453 Q270 429 274 428 ZM323 400 L316 401 L282 399 L278 399 Q275 398 269.5 401 Q264 404 223.5 436 Q183 468 178 490 L178 493 Q174 515 155 533 Q149 540 149 555 Q149 581 176.5 598.5 Q204 616 244 616 L263 616 Q288 608 307.5 623.5 Q327 639 352.5 639 Q378 639 399 621 L406 616 Q423 600 436 593 Q464 579 464 555 Q464 534 455 528 L426 500 Q416 490 410 482.5 Q404 475 382 465 Q360 455 350 455 L337 455 Q337 454 349 435 Q353 427 346.5 413.5 Q340 400 323 400 Z" /><glyph glyph-name="architecture" unicode="&#xe040;" d="M0 554 Q0 566 14 568 L652 568 Q657 568 660.5 564 Q664 560 664 554 L664 477 Q664 472 660 468.5 Q656 465 652 465 L14 465 Q9 465 4.5 468.5 Q0 472 0 477 L0 554 ZM606 437 Q614 437 614 430 L614 408 Q614 400 606 400 L62 400 Q52 400 52 408 L52 430 Q52 437 62 437 L606 437 ZM92 374 L574 374 L574 350 Q574 328 557 313.5 Q540 299 516 299 L516 -29 L440 -29 L440 227 Q440 241 430 251.5 Q420 262 405 262 Q390 262 380 251.5 Q370 241 369 227 L369 -29 L296 -29 L296 227 Q296 241 287 251.5 Q278 262 262 262 Q246 262 236 251.5 Q226 241 227 227 L227 -29 L150 -29 L150 299 Q126 299 109 314 Q92 329 92 350 L92 374 Z" /><glyph glyph-name="arrow_up" unicode="&#xe041;" d="M528 234 L371 297 Q358 301 349 296.5 Q340 292 340 278 L340 59 Q340 28 327 1 Q327 -9 308 -22.5 Q289 -36 272 -36.5 Q255 -37 241 -27 Q227 -17 222 -9 L217 1 Q204 29 203 59 L203 278 Q203 291 194.5 296.5 Q186 302 173 298 L16 234 Q4 229 1 232.5 Q-2 236 5 246 L255 644 Q262 655 271.5 654.5 Q281 654 289 644 L539 246 Q545 236 542.5 232.5 Q540 229 528 234 Z" /><glyph glyph-name="archaeological" unicode="&#xe042;" d="M461 383 Q488 405 488 436.5 Q488 468 467 489 Q446 510 418.5 509 Q391 508 371 491 Q362 479 361 471.5 Q360 464 371 460 Q430 428 461 383 ZM375 159 Q425 216 425 266 Q425 294 408.5 307 Q392 320 386 320 L389 309 Q391 302 391 292 L391 264 Q391 247 380 224 Q349 146 306 97 L328 112 Q348 126 375 159 ZM166 460 Q173 464 175 471 Q175 479 164 491 Q144 508 116.5 508 Q89 508 68 488 Q47 468 47 436.5 Q47 405 76 383 Q103 428 166 460 ZM195 72 Q52 180 47 297 Q47 319 54 340 Q30 355 15 382 Q0 409 0 446.5 Q0 484 31.5 518.5 Q63 553 108 556 Q95 578 96 600 L96 605 Q194 592 267 597 L290 597 Q366 597 443 605 Q445 583 427 556 Q473 552 504 518.5 Q535 485 534 438 Q534 375 483 340 Q488 319 488 297 Q488 252 461 205 Q423 135 341 72 Q413 50 413 17 Q413 -8 267 -8 Q121 -8 121 17 Q121 34 141 48.5 Q161 63 195 72 Z" /><glyph glyph-name="arrow_up_double" unicode="&#xe043;" d="M652 -37 Q652 -67 626 -70 Q617 -70 607 -64 L371 68 Q353 79 326 78.5 Q299 78 281 68 L45 -64 Q34 -70 25 -70 Q0 -66 0 -37 L0 -6 Q0 16 12.5 38.5 Q25 61 43 72 L281 218 Q299 231 326 228 L328 228 Q353 228 371 218 L607 72 Q625 60 638.5 37 Q652 14 652 -6 L652 -37 ZM45 253 Q34 248 27 246 Q0 246 0 278 L0 310 Q0 332 12.5 355 Q25 378 43 388 L281 534 Q299 546 325 545 Q351 544 371 534 L607 388 Q625 377 638.5 354 Q652 331 652 310 L652 278 Q652 256 637 250 Q632 246 624.5 246 Q617 246 607 253 L371 384 Q353 394 326 394 Q299 394 281 384 L45 253 Z" /><glyph glyph-name="building" unicode="&#xe044;" d="M193.5 582 Q186 577 176.5 577 Q167 577 160 581 Q153 585 153 591 L153 640 Q153 644 160 648 Q167 652 176.5 652 Q186 652 193.5 648 Q201 644 201 640 L201 591 Q201 587 193.5 582 ZM302 411 Q302 415 297.5 420.5 Q293 426 286 426 L223 426 Q218 426 212.5 421 Q207 416 207 411 L207 353 Q206 348 211.5 342 Q217 336 223 336 L286 336 Q292 336 297 341 Q302 346 302 353 L302 411 ZM302 280 Q302 294 286 295 L223 295 Q218 295 212.5 291 Q207 287 207 280 L207 223 Q207 218 212 212.5 Q217 207 223 207 L286 207 Q292 207 297 212.5 Q302 218 302 223 L302 280 ZM148 411 Q148 415 142.5 420.5 Q137 426 131 426 L69 426 Q64 426 58.5 421 Q53 416 52 411 L52 353 Q52 348 56.5 342 Q61 336 69 336 L131 336 Q137 336 142.5 341 Q148 346 148 353 L148 411 ZM148 280 Q148 294 131 295 L69 295 Q64 295 58 291 Q52 287 52 280 L52 223 Q52 218 56.5 212.5 Q61 207 69 207 L131 207 Q137 207 142.5 212.5 Q148 218 148 223 L148 280 ZM131 83 Q148 83 148 98 L148 156 Q148 161 142.5 165 Q137 169 131 169 L69 169 Q64 169 58 165 Q52 161 52 156 L52 98 Q52 92 56.5 87.5 Q61 83 69 83 L131 83 ZM353 445 L353 37 Q353 23 341 11 Q329 -1 313 -1 L302 -1 L302 151 Q302 157 297.5 161.5 Q293 166 286 166 L223 166 Q218 166 212.5 162 Q207 158 207 151 L207 -1 L40 -1 Q23 -1 11.5 10 Q0 21 0 37 L0 445 Q0 461 12 470 Q24 479 40 481 L313 481 Q330 481 341.5 471 Q353 461 353 445 ZM72 514.5 Q61 521 61 530.5 Q61 540 72.5 545.5 Q84 551 100 551 L252 551 Q269 551 281 545.5 Q293 540 293 530.5 Q293 521 281 514.5 Q269 508 252 508 L100 508 Q83 508 72 514.5 Z" /><glyph glyph-name="toilet" unicode="&#xe045;" d="M214 457 Q231 457 243.5 443 Q256 429 256 412 L256 204 Q256 186 243 173.5 Q230 161 212 161 L196 161 L196 43 Q196 22 181 7.5 Q166 -7 144 -7 L114 -7 Q93 -7 79.5 7.5 Q66 22 66 43 L66 161 L46 161 Q28 161 14 173.5 Q0 186 0 204 L0 412 Q0 430 14 443.5 Q28 457 46 457 L86 457 Q102 446 122 445 L144 445 Q166 448 182 457 L214 457 ZM322 225 L368 454 Q370 461 375 466 Q380 471 384 471 L394 471 Q398 469 402 466 Q430 446 462 446 L464 446 Q496 445 526 466 Q540 482 556 471 Q564 467 564 457 L610 227 Q612 219 606 210.5 Q600 202 585 202 Q570 202 566 219 L532 393 L516 295 L414 295 L398 385 L364 217 Q357 195 339.5 199.5 Q322 204 322 225 ZM514 278 L622 4 L512 4 Q498 -10 478 -11 L444 -11 Q422 -11 406 4 L304 4 L416 278 L514 278 ZM514 492.5 Q494 470 464 470 Q434 470 414 492.5 Q394 515 394 546 Q394 577 414 598.5 Q434 620 464 620 Q494 620 514 598.5 Q534 577 534 546 Q534 515 514 492.5 ZM62 545 Q63 577 84.5 600.5 Q106 624 136 624 Q166 624 188 601 Q210 578 210 545.5 Q210 513 188 490 Q166 467 136 467 Q106 467 84 490 Q62 513 62 545 Z" /><glyph glyph-name="watermill" unicode="&#xe046;" d="M258 514 Q148 428 92 379 L56 349 Q46 342 32 342 L30 341 Q16 342 8 356 Q0 366 0 373 L0 382 Q2 397 12 407 L266 608 Q289 624 310 608 L562 407 Q576 396 575 380 Q573 341 542 341 Q528 341 520 349 Q380 467 316 514 Q303 523 287 523 Q271 523 258 514 ZM488 596 L488 488 L408 551 L408 596 Q408 608 416 615.5 Q424 623 434 623 L460 623 Q471 623 479.5 615.5 Q488 608 488 596 ZM150 244 L154 220 Q155 214 160 219 L188 246 Q194 251 188 258 L160 285 Q154 291 154 284 L150 259 L150 244 ZM178 320 L212 284 Q218 278 224 284 L240 301 Q246 306 240 312 L206 348 Q203 351 198.5 351 Q194 351 192 349 L178 331 Q172 325 178 320 ZM238 365 L264 338 Q270 332 276 338 L302 365 Q306 370 300 374 Q284 378 270 378 L242 374 Q234 370 238 365 ZM300 312 Q294 307 300 301 L318 282 Q321 279 324.5 279 Q328 279 330 282 L364 317 Q370 322 364 328 L348 349 Q345 351 341.5 351 Q338 351 334 348 L300 312 ZM354 256 Q350 251 354 244 L380 220 Q383 217 385 217 Q388 216 388 220 L390 244 Q392 250 390 259 L388 280 Q387 284 385.5 284 Q384 284 380 282 L354 256 ZM362 185 L330 219 Q326 223 318 219 L304 202 Q298 197 304 190 L336 156 Q342 150 348 156 L362 172 Q368 180 362 185 ZM250 246 L266 228 Q272 222 278 228 L296 244 Q302 249 296 256 L276 275 Q273 278 269.5 278 Q266 278 264 275 L250 258 Q244 251 250 246 ZM304 139 L278 164 Q274 168 266 164 L242 137 Q237 132 245.5 129.5 Q254 127 268 127 Q282 127 300 130 Q308 134 304 139 ZM244 190 Q250 195 244 202 L224 220 Q216 226 212 220 L178 185 Q172 180 178 172 L194 153 Q199 150 208 154 L244 190 ZM328 73 Q317 87 312 87 L304 88 Q288 86 288 82 L284 68 Q280 61 271 60.5 Q262 60 258 68 Q254 81 254 82 L242 87 Q234 89 226 91 Q225 91 219.5 85 Q214 79 208 79 L206 79 Q202 80 196 82 Q190 84 190 93 L190 105 L172 120 Q166 120 158 115 L154 115 L150 116 L136 128 Q140 138 142 142 Q144 146 138 158 Q131 170 129.5 170.5 Q128 171 126 171 L118 169 Q106 169 100 190 L112 201 Q116 205 114 212 L114 218 L110 236 L98 239 Q91 243 90.5 253.5 Q90 264 99 267.5 Q108 271 110 271 L112 282 Q116 296 114 298 L102 311 Q97 316 98.5 319 Q100 322 100 325 Q100 328 102 329 L104 335 Q108 336 112 336 L120 336 Q124 336 136 343 Q146 357 144 361 L136 374 Q133 381 137.5 385 Q142 389 144 392 L148 395 L166 386 L178 391 Q190 398 190 400 L190 418 Q190 428 194 428 L208 433 Q223 418 230 418 L236 418 Q254 420 254 423 L258 436 Q262 443 271 444 Q280 445 284 435.5 Q288 426 288 423 L298 418 Q311 415 313.5 415.5 Q316 416 323 422 Q334 432 334 428 Q336 428 350 423 L350 407 Q350 403 359 394 Q368 385 370 385 L390 392 Q394 392 400 383 L406 380 L398 365 Q393 356 402.5 345 Q412 334 414 333 L426 333 Q432 332 433 329.5 Q434 327 436 325 L442 316 Q435 308 429.5 304.5 Q424 301 426 294 L426 289 Q428 272 430 271 L442 266 Q449 263 449.5 253 Q450 243 441 239.5 Q432 236 430 236 L428 222 Q424 205 426 203.5 Q428 202 431 200 Q434 198 438 194 Q448 186 436 171 Q427 165 420 169 L418 169 Q416 169 406 162 Q392 148 396 145 L404 130 Q408 123 402 117.5 Q396 112 388 112 L386 112 Q378 118 372 118 L360 115 Q348 109 349 105.5 Q350 102 352 94 L352 86 Q352 76 336 73 L328 73 ZM424 95 Q478 148 550 153 Q594 153 634 120 Q654 104 660 89 L668 78 Q612 114 558 113 L531 113 Q508 113 472 105 Q436 97 424 95 ZM686 -4 Q658 10 658 13 Q568 59 429 6 Q356 -22 333 -29.5 Q310 -37 280 -37 Q224 -37 180 -5 Q136 27 110 74 Q190 24 296 23 Q368 23 438.5 42.5 Q509 62 547.5 62 Q586 62 623.5 41.5 Q661 21 686 -4 Z" /><glyph glyph-name="pharmacy" unicode="&#xe047;" d="M282 46 Q362 84 396 116 Q430 148 430 180 Q430 212 406.5 232.5 Q383 253 342 268 L349 190 Q360 185 364 180 Q357 168 333 153 L333 339 L285 329 L285 290 Q250 304 236 311 Q249 324 285 343 L285 342 L333 364 L333 365 Q355 376 375 382 Q403 393 402.5 416 Q402 439 387 446.5 Q372 454 358.5 449 Q345 444 333 438 L333 485 Q333 496 325.5 502.5 Q318 509 308 509 Q298 509 291.5 502.5 Q285 496 285 485 L285 418 Q222 388 194.5 363 Q167 338 167 310 Q167 270 218 245 Q235 237 249 231 L282 219 L285 218 L285 122 L254 109 Q224 87 240 59 Q247 43 268 43 Q277 42 282 46 ZM333 40 L333 51 L285 36 Q287 27 294 21 Q301 15 309.5 14.5 Q318 14 325.5 21.5 Q333 29 333 40 ZM586 176 Q601 163 601 146 Q601 129 597 120 L538 30 Q525 13 508.5 13 Q492 13 484 20 L424 63 Q411 74 401.5 68.5 Q392 63 393 47 L393 6 Q393 -10 382 -21.5 Q371 -33 354 -33 L250 -33 Q234 -33 223.5 -21.5 Q213 -10 213 6 L213 47 Q213 63 203 68 Q193 73 181 63 L119 20 Q105 11 90 14 Q75 17 67 30 L7 120 Q0 130 0.5 138 Q1 146 3 156 Q5 166 17 176 L112 244 Q125 253 125 266 Q125 279 112 289 L17 358 Q4 368 1.5 383.5 Q-1 399 7 413 L67 502 Q80 519 95 520 Q110 521 119 513 L181 469 Q194 459 203.5 464 Q213 469 213 486 L213 536 Q213 552 223.5 563.5 Q234 575 250 575 L354 575 Q368 575 380 563.5 Q392 552 393 536 L393 486 Q393 469 402.5 465 Q412 461 424 469 L484 513 Q494 521 502 522 Q526 522 538 502 L597 413 Q601 401 599.5 383.5 Q598 366 586 358 L491 289 Q478 280 478 266.5 Q478 253 491 244 L586 176 Z" /><glyph glyph-name="waterpark" unicode="&#xe048;" d="M356 -20 Q393 11 433.5 24 Q474 37 494 36.5 Q514 36 537 33 Q560 30 586 18 Q612 6 622 -3 L632 -13 Q570 7 519 7 Q468 7 418.5 -5 Q369 -17 356 -20 ZM648 37 Q618 53 616 53 Q566 76 510 78 L498 78 Q436 75 358 46 Q280 17 253 9.5 Q226 2 192 2 Q130 2 76 39 Q30 69 0 120 Q90 67 210 66 Q293 66 365.5 85.5 Q438 105 484 108 L492 108 Q534 108 574 86 Q632 58 648 37 ZM706 544 Q701 527 690 468 Q676 415 630 380 L472 302 Q468 300 464 301 L248 196 Q216 176 178 178 Q176 178 174 178 Q113 178 69.5 221.5 Q26 265 26 326 L26 371 Q26 391 44 398 L444 597 Q455 602 466.5 597.5 Q478 593 485 582 Q492 571 487 559 Q482 547 472 541 L86 352 L86 326 Q86 290 112 264 Q138 238 168 238 Q198 238 218 250 Q260 274 260 324 Q260 344 278 352 L676 547 Q682 550 689.5 550 Q697 550 706 544 Z" /><glyph glyph-name="viewtower" unicode="&#xe049;" d="M280 565 Q279 580 298 584 Q310 588 322 591 Q343 598 340 582 L340 498 Q337 494 334.5 490.5 Q332 487 318.5 473 Q305 459 286 441.5 Q267 424 266 423 L266 400 Q266 395 239 391 Q166 379 90 393 Q76 397 75 401 L75 417 Q75 423 56 440 Q35 457 22.5 472.5 Q10 488 7 491 Q4 494 3 497 L0 498 L0 590 Q0 598 16 593 Q32 588 43 584 Q63 579 63 563 L63 536 Q63 530 67.5 524 Q72 518 86.5 515.5 Q101 513 121 509 Q127 509 132 513.5 Q137 518 137 526 L137 551 Q137 557 141.5 563 Q146 569 154 568.5 Q162 568 171 568 L190 569 Q196 569 201 564.5 Q206 560 206 553 L206 526 Q206 520 211 514.5 Q216 509 222 509 Q268 513 274 521.5 Q280 530 280 536 L280 565 ZM259 68 L260 68 Q266 71 271 67.5 Q276 64 277 56 L277 12 Q277 7 271.5 -1 Q266 -9 260 -11 Q254 -13 248.5 -9 Q243 -5 243 1 L243 46 Q243 52 248 59 Q253 66 259 68 ZM209 40 L209 -4 Q209 -10 204 -16 Q199 -22 191 -22.5 Q183 -23 155.5 -23 Q128 -23 86 -11 Q80 -9 76 -2 Q72 5 72 12 L72 56 Q72 62 76 66 Q80 70 86 68 Q133 54 183 53 L193 53 Q199 55 204 50.5 Q209 46 209 40 ZM180 137 Q180 144 184.5 149 Q189 154 208.5 155 Q228 156 247 162 Q266 168 271 165 Q276 162 277 155 L277 119 Q276 113 271 105 Q258 90 196 84 Q190 84 185 89 Q180 94 180 99 L180 137 ZM145 138 L145 101 Q146 95 141 88 Q130 77 86 95 Q72 100 72 119 L72 155 Q71 171 88 165.5 Q105 160 125 156 Q145 152 145 138 ZM232 241 Q232 247 237 254 Q242 261 248 262 L260 266 Q266 268 271 264.5 Q276 261 277 255 L277 217 Q277 212 271.5 204 Q266 196 260.5 195 Q255 194 248.5 192 Q242 190 237 193 Q232 196 232 202 L232 241 ZM202 237 L202 199 Q202 192 198 188 Q192 184 186 184 L171 184 Q127 185 86 195 Q80 197 76 204 Q72 211 72 217 L72 255 Q72 261 76 264.5 Q80 268 104 260.5 Q128 253 172 253 L187 253 Q193 253 197.5 248 Q202 243 202 237 ZM149 342 Q149 347 154 352 Q159 357 164 357 L176 357 Q220 357 243 365 Q266 373 271 369.5 Q276 366 277 359 L277 315 Q277 309 271.5 303 Q266 297 260 295 Q216 281 170 280 L163 280 Q159 280 154 286 Q149 292 149 297 L149 342 ZM119 345 L119 302 Q116 283 86 295 Q72 300 72 315 L72 359 Q72 365 76 369 Q80 373 86.5 370.5 Q93 368 101 366 Q109 364 114 357.5 Q119 351 119 345 Z" /><glyph glyph-name="city" unicode="&#xe04a;" d="M326 144 L326 166 Q326 173 321.5 178.5 Q317 184 311 184 L270 184 Q264 184 259 179 Q254 174 254 166 L254 144 Q254 137 258.5 131.5 Q263 126 270 126 L311 126 Q317 126 321.5 131.5 Q326 137 326 144 ZM232 217 L270 217 Q276 217 281.5 222 Q287 227 287 234 L287 257 Q287 264 282 269.5 Q277 275 270 275 L232 275 Q226 275 219.5 270 Q213 265 213 257 L213 234 Q213 227 219.5 222 Q226 217 232 217 ZM251 97 Q251 114 228 114 L192 114 L192 291 Q192 303 199 310.5 Q206 318 217 318 L316 318 Q326 318 333 310 Q340 302 340 291 L340 63 L303 63 Q297 63 292 57 Q287 51 287 45 L287 22 Q287 15 292 9.5 Q297 4 303 4 L340 4 L340 -4 Q340 -16 333 -24 Q326 -32 316 -32 L217 -32 Q206 -32 199 -23.5 Q192 -15 192 -4 L192 55 L234 55 Q240 55 245.5 61.5 Q251 68 251 75 L251 97 ZM86 435 L144 435 Q154 435 161.5 443.5 Q169 452 169 464 L169 498 Q169 509 162 517 Q155 525 144 525 L86 525 Q76 525 68.5 516.5 Q61 508 61 498 L61 464 Q61 452 68.5 443.5 Q76 435 86 435 ZM116 122 Q116 133 108 142 Q100 151 90 151 L31 151 Q21 151 14 142 Q7 133 7 122 L7 88 Q7 76 14.5 69.5 Q22 63 31 63 L90 63 Q100 63 108 70.5 Q116 78 116 88 L116 122 ZM75 340 Q92 340 94 361 L94 385 Q94 392 88.5 398 Q83 404 75 404 L31 404 Q24 404 18.5 398 Q13 392 13 385 L13 361 Q13 353 19 346.5 Q25 340 31 340 L75 340 ZM136 285 Q126 285 118 276.5 Q110 268 110 258 L110 224 Q110 212 118 204 Q126 196 136 196 L153 196 L153 18 Q153 14 155 10 L25 10 Q0 10 0 37 L0 532 Q0 544 7.5 551.5 Q15 559 25 560 L38 560 L38 614 Q38 622 42.5 628 Q47 634 54 634 Q61 634 66.5 628.5 Q72 623 72 614 L72 560 L177 560 Q187 560 195 552 Q203 544 203 532 L203 367 Q182 366 167.5 350.5 Q153 335 153 311 L153 285 L136 285 ZM455 279 Q455 262 471 260 L511 260 Q517 260 522 266 Q527 272 527 279 L527 302 Q527 310 522 314.5 Q517 319 511 319 L471 319 Q465 319 460 314.5 Q455 310 455 302 L455 279 ZM527 158 L527 193 Q527 204 519 212 Q511 220 502 220 L442 220 Q432 220 425 211 Q418 202 418 193 L418 158 Q418 147 425.5 139 Q433 131 442 131 L502 131 Q512 131 519.5 139 Q527 147 527 158 ZM527 485 Q537 480 544 467 Q551 454 551 443 L551 114 Q551 102 543.5 94 Q536 86 524 86 L386 86 L386 306 Q386 321 378 335 L393 335 Q403 335 409.5 342.5 Q416 350 416 361 L416 395 Q416 406 409.5 413.5 Q403 421 393 421 L333 421 Q323 421 316 413.5 Q309 406 309 395 L309 361 L284 361 L284 443 Q284 455 291 467 Q298 479 308 485 L394 538 Q404 543 417.5 543.5 Q431 544 440 538 L527 485 Z" /><glyph glyph-name="battlefield" unicode="&#xe04b;" d="M332 73 Q332 101 359 153 L277 226 L193 152 Q208 130 214.5 108 Q221 86 221 81 L221 73 Q219 63 218.5 51.5 Q218 40 210.5 38.5 Q203 37 196 57 L178 85 Q165 99 146 120 L78 51 Q87 39 73.5 22.5 Q60 6 47.5 4 Q35 2 28 8 L5 33 Q-2 39 0 51 Q2 63 14 74.5 Q26 86 34.5 86 Q43 86 47 84 L113 153 Q68 197 50.5 204 Q33 211 34 218 Q35 225 55 228 L69 228 Q102 228 144 202 L216 282 L20 459 L7 562 L108 544 L277 352 L448 544 L549 559 L531 456 L339 282 L409 202 Q430 216 451 223 Q472 230 478 228 L486 228 Q495 226 499 228 Q521 225 521 217.5 Q521 210 502 202.5 Q483 195 440 153 L506 85 Q520 96 540 76 Q550 66 553.5 53 Q557 40 549 34 L526 9 Q520 3 507 5.5 Q494 8 483.5 19.5 Q473 31 473 38.5 Q473 46 476 51 L408 121 Q365 75 357.5 56.5 Q350 38 343 39 Q336 40 333 62 L332 73 Z" /><glyph glyph-name="clean" unicode="&#xe04c;" d="M570 177 L558 135 Q554 120 542 116 Q530 112 518 121 L207 343 Q195 352 195 364 Q195 376 208 384 L246 409 Q259 417 277 417 Q295 417 307 408 L359 371 Q371 362 386.5 364.5 Q402 367 410 379 L622 675 Q631 687 646 690 Q661 693 673 684 L691 671 Q703 662 706 647 Q709 632 700 619 L489 323 Q480 311 482.5 296 Q485 281 497 272 L551 234 Q563 225 568.5 208.5 Q574 192 570 177 ZM421 -37 Q390 -53 367 -44 Q340 -34 300 -8 Q308 7 315 23 Q328 52 329 56 Q302 33 269 13 Q234 35 202 47 Q207 60 217 87 Q205 71 189 53 Q156 65 120 70 Q135 131 158 185 L166 204 Q100 135 60 76 Q42 76 23 75 Q-35 72 110 263 Q158 324 160.5 326.5 Q163 329 169.5 330 Q176 331 181 327 L500 100 Q512 91 512 80 Q511 54 490 21.5 Q469 -11 421 -37 Z" /><glyph glyph-name="judaism" unicode="&#xe04d;" d="M458 123 L420 57 L494 57 L458 123 ZM294 -51 L324 4 L262 4 L294 -51 ZM96 57 L170 57 L134 122 L96 57 ZM96 298 L134 232 L170 298 L96 298 ZM294 408 L262 353 L324 353 L294 408 ZM426 179 L356 298 L232 298 L162 179 L232 57 L356 57 L426 179 ZM494 298 L420 298 L458 232 L494 298 ZM488 179 L590 4 L388 4 L294 -161 L198 4 L0 4 L102 179 L0 353 L198 353 L294 518 L388 353 L590 353 L488 179 Z" /><glyph glyph-name="christianism" unicode="&#xe04e;" d="M68 393 L202 399 Q207 400 219.5 400 Q232 400 232 392.5 Q232 385 202 380 L28 348 Q17 345 8.5 352.5 Q0 360 0 372 L0 433 Q0 446 9 453 Q18 460 30 458 L202 428 Q232 423 232 415 Q232 412 224 410 L202 410 L68 412 Q38 414 38 402.5 Q38 391 68 393 ZM478 392 Q507 392 506.5 402 Q506 412 478 412 L340 405 Q328 404 320 406.5 Q312 409 312 411 Q312 419 340 426 L516 457 Q528 460 536 453 Q544 446 544 433 L544 372 Q544 360 535 353 Q526 346 516 347 L340 377 Q311 383 311.5 390 Q312 397 340 397 L478 392 ZM272 608 Q264 608 264 579 L270 464 L270 454 Q270 434 263 434.5 Q256 435 252 464 L224 611 Q221 623 228.5 632 Q236 641 248 641 L296 641 Q308 641 315 632 Q322 623 320 611 L295 464 Q292 434 284 435 Q278 435 278 459 L278 464 L282 579 Q283 591 279.5 599.5 Q276 608 272 608 ZM278 329 Q278 358 289 358 Q294 358 299 350 Q304 342 306 329 L340 13 Q342 1 334 -7 Q326 -15 314 -15 L234 -15 Q222 -15 215 -6.5 Q208 2 210 14 L238 329 Q239 341 244.5 349.5 Q250 358 254 358 Q266 358 266 329 L258 50 Q258 38 263 29.5 Q268 21 276 21 Q290 21 290 50 L278 329 Z" /><glyph glyph-name="crown" unicode="&#xe04f;" d="M515 117.5 Q525 127 525 140.5 Q525 154 515 162.5 Q505 171 491.5 171 Q478 171 468.5 162.5 Q459 154 459 140.5 Q459 127 468.5 117.5 Q478 108 491.5 108 Q505 108 515 117.5 ZM402 167 L351 220 L298 167 L351 116 L402 167 ZM230.5 116.5 Q240 126 240 140 Q240 154 230.5 163 Q221 172 207.5 172 Q194 172 185 163 Q176 154 176 140 Q176 126 185 116.5 Q194 107 207.5 107 Q221 107 230.5 116.5 ZM676 412 Q690 417 696 409.5 Q702 402 696.5 384.5 Q691 367 679 329 Q667 291 641 211 Q615 131 608 109 Q595 69 563 69 L137 69 Q123 69 111 77.5 Q99 86 95 100 L2 392 Q-2 405 3.5 411 Q9 417 23 412 L145 377 Q158 373 166.5 360.5 Q175 348 174 336 L171 272 Q170 259 178.5 249 Q187 239 199 239 L248 239 Q262 239 268.5 249 Q275 259 271 271 L252 346 Q249 353 249 371 Q249 389 259 405 L333 523 Q339 535 349 535 Q359 535 367 523 L441 405 Q461 377 449 346 L427 271 Q423 258 430 248.5 Q437 239 452 239 L499 239 Q512 239 521.5 249 Q531 259 530 272 L526 336 Q525 349 533.5 361.5 Q542 374 556 377 L676 412 ZM584 37 Q595 30 595 22 Q595 14 584.5 6 Q574 -2 559 -2 L128 -2 Q114 -2 103.5 5.5 Q93 13 93 21.5 Q93 30 103.5 37 Q114 44 128 44 L559 44 Q573 44 584 37 Z" /><glyph glyph-name="restaurant" unicode="&#xe050;" d="M50 362 L42 398 Q0 418 0 482 Q0 496 8.5 553.5 Q17 611 17 617 Q27 613 27 605 L23 490 Q23 476 32.5 476 Q42 476 42 490 L43 605 Q43 611 49 617 Q60 613 60 605 L60 490 Q60 476 68.5 476 Q77 476 77 490 L76 605 Q77 611 87 617 Q92 612 92 605 L96 490 Q96 476 104.5 476 Q113 476 113 490 L110 605 Q110 611 117 617 L135 482 Q135 420 96 399 Q96 395 91 380 Q86 365 87 354 L100 132 L100 122 Q100 0 90 -26 Q86 -40 75 -37 Q70 -36 68 -36 L53 -37 Q38 -33 38 110 Q39 114 38.5 190 Q38 266 44 310.5 Q50 355 50 362 ZM237 -33 Q229 -33 229 65 Q229 163 238 365 Q238 371 237.5 435.5 Q237 500 238 618 Q260 610 280 590 Q312 558 317 509 L317 479 Q317 385 303 361 Q287 334 287 327 Q287 316 292 303 Q297 290 296 232 Q296 -34 271 -33 Q270 -33 262.5 -31.5 Q255 -30 248 -31.5 Q241 -33 237 -33 Z" /><glyph glyph-name="windmill" unicode="&#xe051;" d="M460 260 Q460 249 434.5 224 Q409 199 391 194 Q387 195 386.5 194.5 Q386 194 383.5 196 Q381 198 380 198.5 Q379 199 376.5 201 Q374 203 372.5 204.5 Q371 206 369 209 Q367 212 365 214 Q363 216 360.5 219.5 Q358 223 356 225 L255 349 Q244 362 229 361 Q228 361 228 362 Q214 362 203 348 L103 225 Q97 215 92.5 210.5 Q88 206 87 204.5 Q86 203 83 201.5 Q80 200 80 199.5 Q80 199 77.5 197 Q75 195 73.5 195.5 Q72 196 71 195 Q54 199 27 225.5 Q0 252 0 266 Q-2 276 13 284 Q17 287 29 295 L153 387 Q167 397 167.5 412 Q168 427 152 435 L27 528 Q13 538 6.5 553 Q0 568 5 577 Q10 586 31 604 Q52 622 60 622 Q83 622 103 599 L202 474 Q213 461 227.5 461.5 Q242 462 253 474 L354 599 Q358 602 363.5 611 Q369 620 374 624 Q379 628 390.5 628 Q402 628 427.5 603 Q453 578 455 571 Q457 564 458 562 Q458 549 428 528 L304 436 Q290 426 290 413 L292 412 Q292 398 304 388 L430 295 Q438 287 445.5 282.5 Q453 278 455 276 Q460 271 460 260 ZM226 58 L241 58 Q277 58 283.5 65.5 Q290 73 288 78 Q284 82 277 107 Q255 185 229 187 Q208 187 190 144 Q172 101 172 85.5 Q172 70 178 64 Q184 58 226 58 ZM252 294 L436 53 Q442 42 443 37 Q443 16 422 10 Q367 -9 242.5 -9 Q118 -9 53 4 L35 10 Q13 17 11 36 Q11 45 19 53 L204 294 Q214 307 228 307 Q242 307 252 294 Z" /><glyph glyph-name="caravan_site" unicode="&#xe052;" d="M167 68 Q186 86 211 86 Q236 86 255 68 Q274 50 274 23 Q274 -4 255 -22 Q236 -40 211 -40 Q186 -40 167 -22 Q148 -4 148 23 Q148 50 167 68 ZM446 267 Q429 267 414.5 248.5 Q400 230 400 202 L400 30 L500 30 L500 202 Q500 230 486 248.5 Q472 267 450 267 L446 267 ZM124 320 Q102 320 86 305 Q70 290 70 268 L70 252 Q70 230 86 215 Q102 200 124 200 L274 200 Q295 200 309.5 214.5 Q324 229 324 252 L324 268 Q324 288 308 304 Q292 320 274 320 L124 320 ZM66 397 L300 397 Q378 397 444 368.5 Q510 340 550 298 Q602 242 625 186 Q648 130 648 96 Q648 62 628 32 L712 32 L712 2 L306 2 L306 57 Q306 85 287 103.5 Q268 122 240 122 L188 122 Q160 122 141 103.5 Q122 85 122 57 L122 2 L66 2 Q39 2 19.5 21 Q0 40 0 68 L0 332 Q0 360 19 378.5 Q38 397 66 397 Z" /><glyph glyph-name="castle" unicode="&#xe053;" d="M355 338 Q355 318 373 318 L389 318 Q396 318 401.5 323.5 Q407 329 407 338 L407 357 Q407 365 411.5 370.5 Q416 376 422 376 L436 376 L436 302 Q436 226 476.5 183.5 Q517 141 562 141 Q607 141 636 163 L636 4 L409 4 Q402 4 396.5 10.5 Q391 17 391 25 L391 178 Q391 194 372 205.5 Q353 217 327 217 Q301 217 284 204.5 Q267 192 265 178 L265 25 Q265 17 260.5 10.5 Q256 4 249 4 L18 4 L18 163 Q50 139 83 141 L85 141 Q137 141 177.5 183.5 Q218 226 218 302 L218 376 L227 376 L227 375 L234 375 Q240 375 246 370 Q252 365 252 356 L252 338 Q252 330 256 324 Q260 318 267 318 L288 318 Q295 318 300.5 323.5 Q306 329 306 338 L306 356 Q306 364 311.5 369.5 Q317 375 321 375 L337 375 Q344 375 349.5 370 Q355 365 355 356 L355 338 ZM636 460 L636 292 Q636 247 616 221.5 Q596 196 569 196 Q542 196 520.5 221 Q499 246 499 292 L499 460 Q499 467 503.5 473 Q508 479 510 479 Q512 479 527 474.5 Q542 470 555.5 470 Q569 470 582.5 469 Q596 468 609.5 473.5 Q623 479 626.5 479 Q630 479 633 473 Q636 467 636 460 ZM587 655 Q626 580 641 557 Q656 534 656 528.5 Q656 523 648 520 Q570 494 490 520 Q476 526 494 553 Q512 580 555 656 Q561 666 572 666 Q583 666 587 655 ZM155 460 L155 292 Q155 247 134.5 221.5 Q114 196 86 196 Q58 196 38 221 Q18 246 18 292 L18 460 Q18 467 21 473 Q24 479 27.5 479 Q31 479 45.5 474.5 Q60 470 73.5 470 Q87 470 100.5 469 Q114 468 126.5 473.5 Q139 479 144.5 479 Q150 479 153 473 Q156 467 155 460 ZM103 655 Q143 579 159 557.5 Q175 536 175 529 Q177 523 168 520 Q88 494 8 520 Q2 521 0 528 Q0 535 16.5 557.5 Q33 580 74 656 Q80 666 88.5 666 Q97 666 103 655 Z" /><glyph glyph-name="camp_site" unicode="&#xe054;" d="M182 49 L477 49 L330 320 L182 49 ZM372 622 Q392 619 392 608 Q392 602 390 593 L349 526 L412 415 Q415 411 414 409 L616 49 L631 49 Q643 49 650 40.5 Q657 32 657 22 Q657 12 650 4 Q643 -4 631 -4 L27 -4 Q16 -4 8 4 Q0 12 0 22 Q0 32 8 40 Q16 48 27 49 L39 49 L242 410 Q243 414 244 416 L307 526 L269 593 Q265 599 267 607 Q269 615 273.5 618 Q278 621 286 619.5 Q294 618 296 612 L328 561 L329 561 L360 613 Q365 622 372 622 Z" /><glyph glyph-name="cable_car" unicode="&#xe055;" d="M156 300 L353 300 L271 463 Q266 462 261 462 Q256 462 251 464 L156 300 ZM280 123 Q280 112 290 112 L431 112 Q435 112 439 116 Q443 120 443 123 L443 235 Q443 239 439.5 243.5 Q436 248 431 248 L290 248 Q280 248 280 235 L280 123 ZM66 123 Q66 112 79 112 L219 112 Q223 112 226 115.5 Q229 119 229 123 L229 235 Q229 248 219 248 L79 248 Q75 248 70.5 244 Q66 240 66 235 L66 123 ZM533 446 Q537 444 540.5 438 Q544 432 542 427 Q538 414 530 414 Q528 414 526 415 L304 490 Q304 487 300 485 L396 300 L454 300 Q468 300 478.5 289 Q489 278 489 260 L489 44 Q489 28 478 16 Q467 4 454 4 L53 4 Q39 4 28.5 15.5 Q18 27 18 44 L18 260 Q18 277 28.5 288.5 Q39 300 51 300 Q82 300 113 300 L221 486 Q214 500 214 508 L214 521 L11 589 Q7 591 3 597 Q-1 603 1 609.5 Q3 616 8 619 Q13 622 18 620 L222 551 Q237 574 258.5 574 Q280 574 294.5 559 Q309 544 309 522 L533 446 Z" /><glyph glyph-name="bus_stop" unicode="&#xe056;" d="M186 304 L215 304 Q252 304 251 275 Q251 259 243 252 Q235 245 215 245 L186 245 L186 304 ZM208 397 Q248 397 248 371 Q248 345 213 345 L186 345 L186 397 L208 397 ZM260 328 Q292 332 292 382 Q292 436 206 436 L141 436 L141 202 L220 202 Q255 202 276.5 220 Q298 238 298 269 Q298 318 260 326 L260 328 ZM14 -1 Q0 -2 0 14 Q0 30 14 29 L84 29 L84 518 Q57 535 57 564.5 Q57 594 73 611 Q89 628 111.5 628 Q134 628 149.5 610.5 Q165 593 165.5 564.5 Q166 536 140 518 L140 490 L278 490 Q301 490 317.5 472 Q334 454 335 428 L335 208 Q335 181 318.5 163.5 Q302 146 278 146 L140 146 L140 29 L220 29 Q224 29 227.5 24.5 Q231 20 231 13.5 Q231 7 227.5 3 Q224 -1 220 -1 L14 -1 Z" /><glyph glyph-name="bicycle" unicode="&#xe057;" d="M494 380 Q522 369 553 373.5 Q584 378 588 374 Q592 370 592 359 Q592 348 582 338 Q572 328 556 328 L524 328 Q414 328 386 452 Q382 462 382 474 Q369 466 349.5 458 Q330 450 317 443 Q304 436 294 421 Q284 406 281 392 Q276 370 273 360 Q270 350 280 346 Q342 317 364 306 Q382 299 386 278 Q408 141 409 132.5 Q410 124 403 113.5 Q396 103 384 100 Q372 97 362 108.5 Q352 120 350 139 Q348 158 336 182 Q324 206 322 246 Q322 253 316 256 Q206 278 188 310 Q177 331 177.5 344.5 Q178 358 181 377.5 Q184 397 184 398 Q198 471 252 513.5 Q306 556 364 555 L374 555 Q410 554 422 544 Q422 496 460 461 L460 460 Q461 459 461.5 439 Q462 419 464 411 Q468 389 494 380 ZM480 592 Q500 612 529 612 Q558 612 578 592 Q598 572 598 543 Q598 514 578 494 Q558 474 529 474 Q500 474 480 495 Q460 516 460 544 Q460 572 480 592 ZM478 225 Q522 268 584 268 Q646 268 690 225 Q734 182 734 119.5 Q734 57 690 13.5 Q646 -30 584 -30 Q522 -30 478 13.5 Q434 57 434 119.5 Q434 182 478 225 ZM645 181 Q620 206 584 206 Q548 206 523 181 Q498 156 498 120 Q498 84 523 58.5 Q548 33 584 33 Q620 33 645 58.5 Q670 84 670 120 Q670 156 645 181 ZM44 225 Q88 268 151 268 Q214 268 257 225 Q300 182 300 119.5 Q300 57 257 13.5 Q214 -30 151 -30 Q88 -30 44 13.5 Q0 57 0 119.5 Q0 182 44 225 ZM211 181 Q186 206 150 206 Q114 206 89 181 Q64 156 64 120 Q64 84 89 58.5 Q114 33 150 33 Q186 33 211 58.5 Q236 84 236 120 Q236 156 211 181 Z" /><glyph glyph-name="drop" unicode="&#xe058;" d="M123 363 Q70 258 70 201.5 Q70 145 98 99 Q114 68 150 68 Q168 68 181 84 Q185 90 185 99.5 Q185 109 176 121 Q169 136 159 146 Q116 213 116 280 Q116 284 123 363 ZM262 590 Q440 337 440 195 Q440 109 381 47 Q316 -23 217 -23 Q140 -19 82 26 Q36 62 18 110 Q0 156 0 196 Q2 362 217 643 L221 647 Q260 592 262 590 Z" /><glyph glyph-name="beach" unicode="&#xe059;" d="M333 290 Q349 292 362 292 Q375 292 386 291 L386 110 Q358 104 333 98 L333 290 ZM364 590 Q344 588 343 593 Q342 606 343.5 612 Q345 618 352.5 622.5 Q360 627 368 626.5 Q376 626 381 619.5 Q386 613 387 603 Q388 593 386 591.5 Q384 590 371 590 L364 590 ZM727 302 L727 300 Q683 325 636.5 325 Q590 325 544 309 Q527 370 527 373 Q496 458 426 522 Q420 528 413.5 528 Q407 528 403 522 Q392 508 404 498 Q490 419 511 308 L511 297 Q449 336 365 336 Q362 335 359 336 Q271 334 217 297 Q217 304 218 305 Q239 415 322 495 Q331 504 331 510.5 Q331 517 326.5 522 Q322 527 315.5 527 Q309 527 299 519 Q207 433 185 313 Q185 310 184 308 Q154 325 103 325 L89 325 Q29 322 0 297 Q35 445 165 521 Q252 572 360 572 Q516 572 621 477 Q702 407 726 306 Q727 304 727 302 ZM391 -40 Q427 -8 467 4.5 Q507 17 527 16.5 Q547 16 570.5 13 Q594 10 620 -2 Q646 -14 656 -22 L666 -31 Q576 -4 495 -17 Q470 -21 437 -29 Q404 -37 391 -40 ZM683 16 Q652 32 650 34 Q600 57 544 57 L535 57 Q473 54 394 26 Q315 -2 286.5 -10 Q258 -18 224 -18 Q161 -18 113.5 16 Q66 50 36 100 Q125 47 243 46 Q326 46 398.5 66 Q471 86 506 86 L516 86 Q602 86 679 21 L683 16 Z" /></font>
</defs>
</svg>
